<?xml version="1.0" standalone="no"?>
<!DOCTYPE svg PUBLIC "-//W3C//DTD SVG 1.1//EN" "http://www.w3.org/Graphics/SVG/1.1/DTD/svg11.dtd" >
<svg xmlns="http://www.w3.org/2000/svg">
<metadata>Generated by IcoMoon</metadata>
<defs>
<font id="icomoon" horiz-adv-x="1024">
<font-face units-per-em="1024" ascent="960" descent="-64" />
<missing-glyph horiz-adv-x="1024" />
<glyph unicode="&#x20;" horiz-adv-x="512" d="" />
<glyph unicode="&#xe900;" glyph-name="arrow-down" d="M822.639 361.361l-288-288c-2.97-2.978-6.502-5.338-10.385-6.946-3.887-1.613-8.047-2.441-12.254-2.441s-8.371 0.828-12.254 2.441c-3.887 1.609-7.415 3.968-10.385 6.946l-288.002 288c-6.004 6.003-9.378 14.148-9.378 22.639s3.373 16.636 9.378 22.639c6.005 6.007 14.149 9.378 22.64 9.378s16.635-3.371 22.64-9.378l233.361-233.399v626.761c0 8.487 3.371 16.626 9.374 22.627 5.999 6.001 14.14 9.373 22.626 9.373s16.627-3.372 22.626-9.373c6.003-6.001 9.374-14.141 9.374-22.627v-626.761l233.361 233.399c6.003 6.007 14.148 9.378 22.639 9.378s16.636-3.371 22.639-9.378c6.003-6.003 9.378-14.148 9.378-22.639s-3.375-16.636-9.378-22.639z" />
<glyph unicode="&#xe901;" glyph-name="arrow-left" d="M896 448c0-8.486-3.371-16.627-9.374-22.626-5.999-6.003-14.14-9.374-22.626-9.374h-626.76l233.399-233.361c2.974-2.97 5.333-6.502 6.942-10.385 1.609-3.887 2.436-8.047 2.436-12.254 0-4.203-0.828-8.367-2.436-12.254-1.609-3.883-3.968-7.411-6.942-10.385-2.97-2.974-6.502-5.333-10.385-6.942-3.887-1.609-8.047-2.436-12.254-2.436-4.203 0-8.367 0.828-12.254 2.436-3.883 1.609-7.411 3.968-10.385 6.942l-288 288c-2.976 2.97-5.336 6.502-6.946 10.385-1.61 3.887-2.439 8.047-2.439 12.254s0.829 8.371 2.439 12.254c1.61 3.887 3.971 7.415 6.946 10.385l288 288.002c6.004 6.004 14.149 9.378 22.639 9.378s16.636-3.373 22.639-9.378c6.007-6.005 9.378-14.149 9.378-22.64s-3.371-16.635-9.378-22.64l-233.399-233.361h626.76c8.486 0 16.627-3.371 22.626-9.374 6.003-5.999 9.374-14.14 9.374-22.626z" />
<glyph unicode="&#xe902;" glyph-name="arrow-right" d="M886.639 425.361l-288-288c-6.003-6.003-14.148-9.378-22.639-9.378s-16.636 3.375-22.639 9.378c-6.007 6.003-9.378 14.148-9.378 22.639s3.371 16.636 9.378 22.639l233.399 233.361h-626.761c-8.487 0-16.626 3.371-22.627 9.374-6.001 5.999-9.373 14.14-9.373 22.626s3.372 16.627 9.373 22.626c6.001 6.003 14.141 9.374 22.627 9.374h626.761l-233.399 233.361c-6.007 6.004-9.378 14.148-9.378 22.64s3.371 16.635 9.378 22.64c6.003 6.004 14.148 9.378 22.639 9.378s16.636-3.373 22.639-9.378l288-288.002c2.978-2.97 5.338-6.498 6.946-10.385 1.613-3.883 2.441-8.047 2.441-12.254s-0.828-8.367-2.441-12.254c-1.609-3.883-3.968-7.415-6.946-10.385z" />
<glyph unicode="&#xe903;" glyph-name="arrows-clockwise" d="M896 768v-192c0-8.487-3.371-16.626-9.374-22.627-5.999-6.001-14.14-9.373-22.626-9.373h-192c-8.486 0-16.627 3.372-22.626 9.373-6.003 6.001-9.374 14.141-9.374 22.627s3.371 16.626 9.374 22.627c5.999 6.001 14.14 9.373 22.626 9.373h114.761l-58.522 58.52c-59.473 59.744-140.22 93.45-224.521 93.72h-1.796c-83.595 0.196-163.905-32.523-223.562-91.080-6.111-5.705-14.212-8.791-22.57-8.6s-16.309 3.647-22.152 9.626c-5.843 5.979-9.114 14.007-9.114 22.368s3.273 16.388 9.117 22.367c72.301 70.664 169.553 109.965 270.65 109.373 101.094-0.591 197.879-41.027 269.35-112.533l58.359-58.52v114.76c0 8.487 3.371 16.626 9.374 22.627 5.999 6.001 14.14 9.373 22.626 9.373s16.627-3.372 22.626-9.373c6.003-6.001 9.374-14.141 9.374-22.627zM745.638 226.842c-60.245-58.85-141.261-91.58-225.481-91.085s-164.846 34.172-224.398 93.722l-58.52 58.522h114.76c8.487 0 16.626 3.371 22.627 9.374 6.001 5.999 9.373 14.14 9.373 22.626s-3.372 16.627-9.373 22.626c-6.001 6.003-14.141 9.374-22.627 9.374h-192c-8.487 0-16.626-3.371-22.627-9.374-6.001-5.999-9.373-14.14-9.373-22.626v-192c0-8.486 3.372-16.627 9.373-22.626 6.001-6.003 14.141-9.374 22.627-9.374s16.626 3.371 22.627 9.374c6.001 5.999 9.373 14.14 9.373 22.626v114.761l58.52-58.522c71.369-71.727 168.296-112.183 269.48-112.478h2.121c100.322-0.26 196.71 39.014 268.279 109.321 5.845 5.978 9.118 14.003 9.118 22.366 0 8.358-3.273 16.388-9.114 22.366-5.845 5.978-13.794 9.434-22.153 9.626s-16.461-2.893-22.571-8.597h-0.043z" />
<glyph unicode="&#xe904;" glyph-name="arrow-up" d="M822.639 489.361c-2.97-2.974-6.502-5.338-10.385-6.946-3.887-1.609-8.047-2.441-12.254-2.441s-8.371 0.832-12.254 2.441c-3.887 1.609-7.415 3.972-10.385 6.946l-233.361 233.4v-626.761c0-8.486-3.371-16.627-9.374-22.626-5.999-6.003-14.14-9.374-22.626-9.374s-16.627 3.371-22.626 9.374c-6.003 5.999-9.374 14.14-9.374 22.626v626.761l-233.361-233.4c-6.004-6.003-14.148-9.378-22.64-9.378s-16.635 3.375-22.64 9.378c-6.004 6.003-9.378 14.148-9.378 22.639s3.373 16.636 9.378 22.641l288.002 288c2.97 2.975 6.498 5.335 10.385 6.946 3.883 1.61 8.047 2.439 12.254 2.439s8.367-0.829 12.254-2.439c3.883-1.61 7.415-3.971 10.385-6.946l288-288c2.974-2.972 5.338-6.5 6.946-10.387 1.613-3.883 2.441-8.047 2.441-12.254 0-4.203-0.828-8.367-2.441-12.254-1.609-3.883-3.972-7.415-6.946-10.385z" />
<glyph unicode="&#xe905;" glyph-name="arrow-up-right" d="M800 704v-416c0-8.486-3.371-16.627-9.374-22.626-5.999-6.003-14.14-9.374-22.626-9.374s-16.627 3.371-22.626 9.374c-6.003 5.999-9.374 14.14-9.374 22.626v338.76l-457.36-457.399c-6.005-6.007-14.149-9.378-22.64-9.378s-16.635 3.371-22.64 9.378c-6.004 6.003-9.378 14.148-9.378 22.639s3.373 16.636 9.378 22.639l457.401 457.361h-338.761c-8.487 0-16.626 3.372-22.627 9.373s-9.373 14.141-9.373 22.627c0 8.487 3.372 16.626 9.373 22.627s14.141 9.373 22.627 9.373h416c8.486 0 16.627-3.372 22.626-9.373 6.003-6.001 9.374-14.141 9.374-22.627z" />
<glyph unicode="&#xe906;" glyph-name="arrow-up-right-bold" d="M512 864c-82.278 0-162.706-24.398-231.117-70.109s-121.731-110.681-153.216-186.695c-31.486-76.013-39.724-159.657-23.673-240.352s55.671-154.82 113.85-213.001c58.179-58.18 132.303-97.801 213-113.852 80.695-16.051 164.339-7.812 240.354 23.676 76.011 31.484 140.983 84.804 186.692 153.216 45.713 68.412 70.11 148.838 70.11 231.117-0.115 110.294-43.981 216.038-121.971 294.028s-183.735 121.856-294.029 121.972zM672 384c0-8.486-3.371-16.627-9.374-22.626-5.999-6.003-14.14-9.374-22.626-9.374s-16.627 3.371-22.626 9.374c-6.003 5.999-9.374 14.14-9.374 22.626v114.761l-201.36-201.399c-2.973-2.974-6.503-5.333-10.387-6.942s-8.048-2.436-12.253-2.436c-4.204 0-8.368 0.828-12.253 2.436s-7.414 3.968-10.387 6.942c-2.973 2.974-5.332 6.502-6.941 10.385-1.609 3.887-2.437 8.051-2.437 12.254s0.828 8.367 2.437 12.254c1.609 3.883 3.968 7.411 6.941 10.385l201.4 201.361h-114.761c-8.486 0-16.627 3.372-22.627 9.373s-9.373 14.141-9.373 22.627c0 8.487 3.372 16.626 9.373 22.627s14.141 9.373 22.627 9.373h192c8.486 0 16.627-3.372 22.626-9.373 6.003-6.001 9.374-14.141 9.374-22.627v-192z" />
<glyph unicode="&#xe907;" glyph-name="bank" d="M96 543.999h96v-255.999h-64c-8.487 0-16.626-3.371-22.627-9.374-6.001-5.999-9.373-14.14-9.373-22.626s3.372-16.627 9.373-22.63c6.001-5.999 14.141-9.37 22.627-9.37h768c8.486 0 16.627 3.371 22.626 9.37 6.003 6.003 9.374 14.144 9.374 22.63s-3.371 16.627-9.374 22.626c-5.999 6.003-14.14 9.374-22.626 9.374h-64v255.999h96c6.963 0.007 13.734 2.284 19.285 6.487s9.579 10.101 11.473 16.801c1.894 6.7 1.553 13.835-0.973 20.323s-7.1 11.975-13.026 15.628l-416 256c-5.039 3.099-10.842 4.74-16.759 4.74s-11.721-1.641-16.759-4.74l-416-256c-5.927-3.654-10.501-9.14-13.027-15.628s-2.868-13.623-0.972-20.323c1.896-6.7 5.924-12.598 11.475-16.801s12.321-6.481 19.284-6.487zM256 543.999h128v-255.999h-128v255.999zM576 543.999v-255.999h-128v255.999h128zM768 288h-128v255.999h128v-255.999zM512 794.439l302.959-186.44h-605.919l302.96 186.44zM992 128c0-8.486-3.371-16.627-9.374-22.63-5.999-5.999-14.14-9.37-22.626-9.37h-896c-8.487 0-16.626 3.371-22.627 9.37-6.001 6.003-9.373 14.144-9.373 22.63s3.371 16.627 9.373 22.626c6.001 6.003 14.141 9.374 22.627 9.374h896c8.486 0 16.627-3.371 22.626-9.374 6.003-5.999 9.374-14.14 9.374-22.626z" />
<glyph unicode="&#xe908;" glyph-name="caret-down" d="M854.639 553.36l-320-319.999c-2.97-2.974-6.502-5.338-10.385-6.946-3.887-1.613-8.047-2.441-12.254-2.441s-8.371 0.828-12.254 2.441c-3.887 1.609-7.415 3.972-10.385 6.946l-320.002 319.999c-6.004 6.005-9.378 14.149-9.378 22.64s3.373 16.636 9.378 22.64c6.005 6.004 14.149 9.378 22.64 9.378s16.635-3.373 22.64-9.378l297.361-297.401 297.361 297.401c2.97 2.973 6.502 5.331 10.385 6.941 3.887 1.609 8.047 2.437 12.254 2.437 4.203 0 8.367-0.828 12.254-2.437 3.883-1.609 7.411-3.968 10.385-6.941s5.333-6.503 6.942-10.388c1.609-3.884 2.436-8.048 2.436-12.253s-0.828-8.368-2.436-12.253c-1.609-3.885-3.968-7.414-6.942-10.388z" />
<glyph unicode="&#xe909;" glyph-name="caret-left" d="M662.639 150.639c2.974-2.97 5.333-6.502 6.942-10.385 1.609-3.887 2.436-8.047 2.436-12.254 0-4.203-0.828-8.367-2.436-12.254-1.609-3.883-3.968-7.411-6.942-10.385s-6.502-5.333-10.385-6.942c-3.887-1.609-8.051-2.436-12.254-2.436-4.207 0-8.367 0.828-12.254 2.436-3.883 1.609-7.411 3.968-10.385 6.942l-320.001 320c-2.975 2.97-5.335 6.502-6.946 10.385-1.611 3.887-2.44 8.047-2.44 12.254s0.829 8.371 2.44 12.254c1.61 3.887 3.971 7.415 6.946 10.385l320.001 320.002c6.003 6.004 14.148 9.378 22.639 9.378s16.636-3.373 22.639-9.378c6.007-6.005 9.378-14.149 9.378-22.64s-3.371-16.635-9.378-22.64l-297.399-297.361 297.399-297.361z" />
<glyph unicode="&#xe90a;" glyph-name="caret-right" d="M726.639 425.361l-319.999-320c-2.973-2.974-6.503-5.333-10.387-6.942s-8.048-2.436-12.253-2.436c-4.205 0-8.368 0.828-12.253 2.436s-7.414 3.968-10.387 6.942c-2.973 2.974-5.332 6.502-6.941 10.385-1.609 3.887-2.437 8.051-2.437 12.254 0 4.207 0.828 8.367 2.437 12.254 1.609 3.883 3.968 7.415 6.941 10.385l297.4 297.361-297.4 297.361c-6.004 6.004-9.378 14.148-9.378 22.64s3.373 16.635 9.378 22.64c6.004 6.004 14.148 9.378 22.64 9.378s16.635-3.373 22.64-9.378l319.999-320.002c2.978-2.97 5.338-6.498 6.946-10.385 1.613-3.883 2.441-8.047 2.441-12.254s-0.828-8.367-2.441-12.254c-1.609-3.883-3.968-7.415-6.946-10.385z" />
<glyph unicode="&#xe90b;" glyph-name="caret-up" d="M854.639 297.361c-2.97-2.974-6.498-5.338-10.385-6.946-3.883-1.609-8.047-2.441-12.254-2.441s-8.371 0.832-12.254 2.441c-3.887 1.609-7.415 3.972-10.385 6.946l-297.361 297.4-297.36-297.4c-6.004-6.003-14.148-9.378-22.64-9.378s-16.636 3.375-22.64 9.378c-6.004 6.003-9.378 14.148-9.378 22.639s3.373 16.636 9.378 22.639l320.001 320.002c2.97 2.975 6.498 5.335 10.385 6.946 3.883 1.61 8.047 2.439 12.254 2.439s8.371-0.829 12.254-2.439c3.887-1.61 7.415-3.971 10.385-6.946l320-320.002c2.978-2.97 5.338-6.498 6.946-10.385 1.613-3.883 2.441-8.047 2.441-12.254 0-4.203-0.828-8.367-2.441-12.254-1.609-3.883-3.968-7.411-6.946-10.385z" />
<glyph unicode="&#xe90c;" glyph-name="casino" d="M512 864c-82.278 0-162.706-24.398-231.117-70.109s-121.731-110.681-153.216-186.695c-31.486-76.013-39.724-159.657-23.673-240.352s55.672-154.82 113.85-213.001c58.179-58.18 132.303-97.801 213-113.852 80.695-16.051 164.339-7.812 240.354 23.676 76.011 31.484 140.983 84.804 186.692 153.216 45.713 68.412 70.11 148.838 70.11 231.117-0.115 110.294-43.981 216.038-121.971 294.028s-183.735 121.856-294.029 121.972zM512 256c-37.973 0-75.093 11.26-106.67 32.358-31.574 21.099-56.183 51.085-70.715 86.165-14.532 35.085-18.334 73.69-10.926 110.933s25.694 71.456 52.546 98.307c26.852 26.852 61.064 45.138 98.307 52.546s75.849 3.606 110.933-10.926c35.081-14.532 65.067-39.141 86.165-70.715 21.099-31.576 32.358-68.696 32.358-106.67-0.051-50.906-20.297-99.712-56.294-135.706-35.994-35.998-84.8-56.243-135.706-56.294zM668.838 650.12c-36.164 28.269-79.3 46.236-124.838 52v96.4c71.014-6.397 138.385-34.306 193.122-80l-68.284-68.4zM480 701.92c-45.538-5.764-88.674-23.731-124.84-52l-68.28 68.48c54.735 45.694 122.106 73.603 193.12 80v-96.48zM309.88 604.84c-28.268-36.166-46.236-79.302-52-124.84h-96.4c6.397 71.014 34.306 138.385 80 193.12l68.4-68.28zM258.080 416c5.764-45.538 23.731-88.674 52-124.838l-68.48-68.279c-45.694 54.733-73.603 122.103-80 193.118h96.48zM355.16 245.879c36.188-28.198 79.319-46.093 124.84-51.802v-96.597c-71.014 6.396-138.385 34.304-193.12 80l68.28 68.399zM544 194.078c45.521 5.709 88.653 23.603 124.838 51.802l68.284-68.279c-54.737-45.696-122.108-73.604-193.122-80v96.478zM714.121 291.162c28.198 36.186 46.093 79.317 51.802 124.838h96.597c-6.396-71.014-34.304-138.385-80-193.118l-68.399 68.279zM765.922 480c-5.709 45.521-23.603 88.652-51.802 124.84l68.279 68.28c45.696-54.735 73.604-122.106 80-193.12h-96.478z" />
<glyph unicode="&#xe90d;" glyph-name="check" d="M918.639 649.36l-512-511.999c-2.972-2.974-6.501-5.338-10.385-6.946-3.885-1.613-8.049-2.441-12.254-2.441s-8.369 0.828-12.254 2.441c-3.884 1.609-7.414 3.972-10.386 6.946l-224 224c-6.004 6.003-9.378 14.148-9.378 22.639s3.373 16.636 9.378 22.639c6.005 6.007 14.149 9.378 22.64 9.378s16.635-3.371 22.64-9.378l201.36-201.399 489.361 489.401c6.003 6.004 14.148 9.378 22.639 9.378s16.636-3.373 22.639-9.378c6.003-6.004 9.378-14.149 9.378-22.64s-3.375-16.635-9.378-22.64z" />
<glyph unicode="&#xe90e;" glyph-name="check-bold" d="M918.839 735.194c-26.402 26.438-69.278 26.421-95.714 0l-430.775-430.793-191.461 191.458c-26.438 26.441-69.292 26.441-95.729 0-26.438-26.436-26.438-69.291 0-95.727l239.316-239.317c13.21-13.21 30.533-19.831 47.857-19.831s34.663 6.605 47.873 19.831l478.635 478.651c26.436 26.419 26.436 69.292 0 95.728z" />
<glyph unicode="&#xe90f;" glyph-name="check-circle-fill" d="M512 864c-82.278 0-162.706-24.398-231.117-70.109s-121.731-110.681-153.216-186.695c-31.486-76.013-39.724-159.657-23.673-240.352s55.671-154.82 113.85-213.001c58.179-58.18 132.303-97.801 213-113.852 80.695-16.051 164.339-7.812 240.354 23.676 76.011 31.484 140.983 84.804 186.692 153.216 45.713 68.412 70.11 148.838 70.11 231.117-0.115 110.294-43.981 216.038-121.971 294.028s-183.735 121.856-294.029 121.972zM694.639 521.361l-224-224c-2.97-2.978-6.498-5.338-10.385-6.946-3.883-1.613-8.047-2.441-12.254-2.441s-8.371 0.828-12.254 2.441c-3.883 1.609-7.415 3.968-10.386 6.946l-96 96c-6.004 6.003-9.378 14.148-9.378 22.639s3.373 16.636 9.378 22.639c6.004 6.007 14.148 9.378 22.64 9.378s16.636-3.371 22.64-9.378l73.36-73.399 201.361 201.401c2.974 2.973 6.502 5.331 10.385 6.941 3.887 1.609 8.051 2.437 12.254 2.437 4.207 0 8.367-0.828 12.254-2.437 3.883-1.609 7.411-3.968 10.385-6.941s5.333-6.503 6.942-10.388c1.609-3.884 2.436-8.048 2.436-12.253s-0.828-8.368-2.436-12.254c-1.609-3.883-3.968-7.411-6.942-10.385z" />
<glyph unicode="&#xe910;" glyph-name="coins" d="M736 601.72v22.28c0 100.32-151.322 176-352 176-200.68 0-352-75.68-352-176v-160c0-83.558 105-149.961 256-169.839v-22.161c0-100.318 151.322-176 352-176s352 75.682 352 176v160c0 82.799-101.679 149.28-256 169.72zM928 432c0-52.881-123.162-112-288-112-14.921 0-29.722 0.521-44.318 1.481 86.276 31.441 140.318 82.522 140.318 142.519v73.040c119.479-17.799 192-66.119 192-105.040zM288 359.002v95.159c31.831-4.147 63.9-6.208 96-6.161 32.1-0.047 64.171 2.014 96 6.161v-95.159c-31.782-4.698-63.871-7.036-96-7.002-32.129-0.034-64.216 2.304-96 7.002zM672 520.282v-56.282c0-33.562-49.638-69.598-128-91.482v93.483c51.639 12.518 95.36 31.159 128 54.281zM384 736c164.838 0 288-59.12 288-112s-123.162-112-288-112c-164.84 0-288 59.12-288 112s123.16 112 288 112zM96 464v56.282c32.64-23.121 76.36-41.762 128-54.281v-93.483c-78.36 21.884-128 57.92-128 91.482zM352 272v16.678c10.52-0.397 21.16-0.678 32-0.678 15.52 0 30.68 0.521 45.559 1.399 16.529-5.918 33.37-10.94 50.441-15.040v-93.841c-78.36 21.884-128 57.92-128 91.482zM544 167.002v95.398c31.821-4.279 63.893-6.417 96-6.4 32.098-0.047 64.171 2.014 96 6.161v-95.159c-63.659-9.335-128.341-9.335-192 0zM800 180.518v93.483c51.639 12.518 95.36 31.159 128 54.281v-56.282c0-33.562-49.638-69.598-128-91.482z" />
<glyph unicode="&#xe911;" glyph-name="collapse" d="M192 800c-17.673 0-32-14.327-32-32v-640c0-17.673 14.327-32 32-32h640c17.673 0 32 14.327 32 32v640c0 17.673-14.327 32-32 32h-640zM96 768c0 53.019 42.981 96 96 96h640c53.018 0 96-42.981 96-96v-640c0-53.018-42.982-96-96-96h-640c-53.019 0-96 42.982-96 96v640zM384 864c17.673 0 32-14.327 32-32v-768c0-17.673-14.327-32-32-32s-32 14.327-32 32v768c0 17.673 14.327 32 32 32zM202.667 832c0 17.673 14.327 32 32 32h533.333c17.673 0 32-14.327 32-32s-14.327-32-32-32h-533.333c-17.673 0-32 14.327-32 32zM202.667 64c0 17.673 14.327 32 32 32h533.333c17.673 0 32-14.327 32-32s-14.327-32-32-32h-533.333c-17.673 0-32 14.327-32 32zM705.293 555.961c12.497-12.497 12.497-32.756 0-45.254l-62.703-62.707 62.703-62.707c12.497-12.497 12.497-32.755 0-45.252s-32.755-12.497-45.252 0l-85.333 85.333c-12.497 12.497-12.497 32.755 0 45.252l85.333 85.335c12.497 12.497 32.755 12.497 45.252 0z" />
<glyph unicode="&#xe912;" glyph-name="copy" d="M232.623 21.333h388.083c74.603 0 135.774 55.97 145.34 128h25.327c81.212 0 147.294 66.082 147.294 147.29v430.754c0 81.207-66.082 147.29-147.29 147.29h-388.087c-81.207 0-147.29-66.082-147.29-147.29v-23.377h-23.377c-81.207 0-147.29-66.082-147.29-147.29v-388.083c0-81.212 66.082-147.294 147.29-147.294zM341.333 727.377c0 34.163 27.793 61.956 61.956 61.956h388.083c34.167 0 61.961-27.793 61.961-61.956v-430.75c0-34.167-27.793-61.961-61.956-61.961h-23.377v322.044c0 81.207-66.082 147.29-147.29 147.29h-279.377v23.377zM170.667 556.71c0 34.163 27.793 61.956 61.956 61.956h388.083c34.167 0 61.961-27.793 61.961-61.956v-388.083c0-34.167-27.793-61.961-61.956-61.961h-388.087c-34.163 0-61.956 27.793-61.956 61.956v388.087z" />
<glyph unicode="&#xe913;" glyph-name="currency-circle-dollar" d="M512 864c-82.278 0-162.706-24.398-231.117-70.109s-121.731-110.681-153.216-186.695c-31.486-76.013-39.724-159.657-23.673-240.352s55.672-154.82 113.85-213.001c58.179-58.18 132.303-97.801 213-113.852 80.695-16.051 164.339-7.812 240.354 23.676 76.011 31.484 140.983 84.804 186.692 153.216 45.713 68.412 70.11 148.838 70.11 231.117-0.115 110.294-43.981 216.038-121.971 294.028s-183.735 121.856-294.029 121.972zM512 96c-69.619 0-137.675 20.646-195.561 59.324s-103.003 93.653-129.645 157.973c-26.642 64.32-33.613 135.095-20.031 203.375s47.107 131.002 96.335 180.23 111.948 82.753 180.23 96.335c68.279 13.582 139.055 6.611 203.375-20.031s119.296-71.759 157.973-129.645c38.677-57.886 59.324-125.941 59.324-195.561-0.107-93.325-37.227-182.797-103.215-248.785s-155.46-103.108-248.785-103.215zM672 368c0-29.705-11.802-58.193-32.802-79.198-21.005-21.001-49.493-32.802-79.198-32.802h-16v-32c0-8.486-3.371-16.627-9.374-22.626-5.999-6.003-14.14-9.374-22.626-9.374s-16.627 3.371-22.626 9.374c-6.003 5.999-9.374 14.14-9.374 22.626v32h-64c-8.487 0-16.626 3.371-22.627 9.374-6.001 5.999-9.373 14.14-9.373 22.626s3.372 16.627 9.373 22.626c6.001 6.003 14.141 9.374 22.627 9.374h144c12.732 0 24.939 5.056 33.941 14.059s14.059 21.21 14.059 33.941c0 12.732-5.056 24.939-14.059 33.941s-21.21 14.059-33.941 14.059h-96c-29.705 0-58.192 11.802-79.196 32.802-21.004 21.005-32.804 49.493-32.804 79.198s11.8 58.192 32.804 79.196c21.004 21.004 49.491 32.804 79.196 32.804h16v32c0 8.487 3.371 16.626 9.374 22.627 5.999 6.001 14.14 9.373 22.626 9.373s16.627-3.372 22.626-9.373c6.003-6.001 9.374-14.141 9.374-22.627v-32h64c8.486 0 16.627-3.372 22.626-9.373 6.003-6.001 9.374-14.141 9.374-22.627s-3.371-16.626-9.374-22.627c-5.999-6.001-14.14-9.373-22.626-9.373h-144c-12.732 0-24.939-5.057-33.941-14.059-9.001-9.002-14.059-21.211-14.059-33.941 0-12.732 5.057-24.939 14.059-33.941s21.21-14.059 33.941-14.059h96c29.705 0 58.193-11.802 79.198-32.802 21.001-21.005 32.802-49.493 32.802-79.198z" />
<glyph unicode="&#xe914;" glyph-name="default" d="M512 96c-194.404 0-352 157.598-352 352 0 194.404 157.596 352 352 352 194.402 0 352-157.596 352-352 0-194.402-157.598-352-352-352zM512 32c229.751 0 416 186.249 416 416s-186.249 416-416 416c-229.751 0-416-186.249-416-416s186.249-416 416-416z" />
<glyph unicode="&#xe915;" glyph-name="event" d="M977.852 620.339c-1.856 14.922-15.667 25.52-30.801 23.608-35.324-4.48-62.711-21.754-80.239-36.444-1.122 8.887-2.581 17.733-4.373 26.511 26.364 12.928 46.665 33.852 57.353 59.893 15.266 36.292 10.415 81.064-12.672 116.876-12.851 19.97-26.697 38.349-41.143 54.625-10.001 11.267-27.362 12.405-38.784 2.55-24.866-21.45-41.609-52.547-48.414-89.924-0.017-0.098-0.034-0.197-0.051-0.297-5.321-31.198-3.191-64.073 10.074-93.017 59.836-130.295 14.618-291.927-114.364-372.444-7.962-4.971-14.285-11.746-18.573-19.61h-116.365v110.852l96.789-49.583c20.079-10.287 43.507 6.507 39.799 28.527l-22.959 136.294 99.75 96.953c16.107 15.652 7.185 42.833-15.202 46.161l-137.796 20.482-62.827 137.031c-9.724 21.211-40.371 21.24-50.112 0l-62.825-137.031-137.798-20.482c-22.354-3.323-31.33-30.485-15.202-46.161l99.749-96.953-22.957-136.294c-3.707-22.007 19.706-38.818 39.8-28.527l96.788 49.587v-110.857h-116.94c-6.941 11.831-17.923 19.307-27.454 25.796-112.502 76.565-165.443 228.962-104.276 366.563 12.98 29.228 15.365 60.88 9.935 92.713-0.017 0.098-0.035 0.195-0.052 0.295-6.803 37.379-23.543 68.474-48.409 89.926-11.425 9.856-28.785 8.715-38.788-2.551-14.452-16.28-28.295-34.659-41.136-54.611-23.093-35.827-27.945-80.599-12.678-116.891 10.686-26.041 30.989-46.964 57.35-59.892-1.797-8.8-3.261-17.667-4.384-26.576-23.785 19.829-52.433 32.92-80.719 36.507-15.112 1.919-28.946-8.675-30.801-23.611-3.073-24.742-4.096-46.979-3.128-67.971 1.203-41.742 23.283-81.422 57.704-103.707 19.013-12.864 41.488-19.443 64.969-19.443 5.364 0 10.78 0.35 16.219 1.037 3.419-8.205 7.148-16.282 11.172-24.218-24.589 3.029-55.574 1.929-85.609-12.732-6.64-3.243-11.673-8.99-13.961-15.945-2.288-6.95-1.635-14.519 1.809-20.992 9.533-17.911 20.887-38.601 35.108-57.69 23.23-33.169 61.635-56.213 106.595-56.213 27.353 0 53.748 10.249 75.483 28.838 2.915-2.018 5.696-4.023 6.982-5.286 0.006-0.137 0.009-0.299 0.009-0.478v-189.935h-27.5c-15.188 0-27.5-12.151-27.5-27.136s12.312-27.132 27.5-27.132h439.997c15.189 0 27.499 12.147 27.499 27.132s-12.309 27.136-27.499 27.136h-27.499v191.228c2.483 1.557 4.915 3.162 7.351 4.774 21.956-18.995 48.768-29.269 77.538-29.312 0.294 0 0.589-0.004 0.883-0.004 39.625 0 80.683 20.497 108.83 62.797 10.914 16.405 22.204 33.374 31.117 52.467 6.221 13.333 0.563 29.133-12.762 35.652-25.088 12.275-53.227 16.388-85.572 12.51 4.066 8.009 7.808 16.175 11.243 24.486 5.184-0.636 10.342-0.96 15.458-0.96 23.415 0 45.926 6.682 65.766 19.836 33.924 22.622 55.59 62.238 56.619 103.455 0.986 20.82-0.038 43.005-3.119 67.808zM419.633 547.535l-70.744 68.759 98.215 14.6c9.225 1.371 17.114 7.261 20.958 15.647l43.934 95.831 43.938-95.83c3.844-8.386 11.733-14.276 20.958-15.647l98.214-14.599-70.741-68.76c-6.379-6.197-9.297-15.069-7.829-23.777l16.277-96.649c0 0-87.731 44.945-87.757 44.958-8.427 4.032-17.148 4.595-25.732 0.196-38.067-19.503-23.505-12.041-88.143-45.154l16.279 96.649c1.468 8.708-1.453 17.58-7.827 23.776zM832.939 768.589c1.916 10.472 5.508 23.373 12.228 35.626 5.312-7.19 10.5-14.715 15.535-22.537 13.632-21.146 16.794-46.834 8.26-67.040-0.038-0.096-0.081-0.194-0.119-0.291-4.407-10.777-11.904-19.82-21.871-26.618-7.983 21.207-21.065 39.367-14.033 80.859zM177.522 687.729c-9.968 6.799-17.464 15.84-21.871 26.618-0.039 0.098-0.079 0.194-0.121 0.291-8.536 20.205-5.372 45.894 8.268 67.054 5.029 7.814 10.214 15.334 15.526 22.522 6.717-12.253 10.309-25.155 12.224-35.625 6.747-39.787-4.717-56.113-14.027-80.861zM131.678 493.513c-0.204 0.137-0.409 0.273-0.616 0.41-19.451 12.506-32.433 36.113-33.071 60.146-0.003 0.183-0.011 0.364-0.020 0.546-0.405 8.637-0.407 17.584 0 26.964 11.831-5.644 23.173-13.668 32.703-23.371 14.955-15.328 24.616-32.029 28.796-49.676 1.384-8.431 3.058-16.806 5.054-25.101-12.072 0.183-23.288 3.567-32.846 10.082zM174.961 330.53c-5.217 6.976-10.092 14.434-14.648 21.969 11.905 1.25 24.803 0.486 38.025-2.347 21.932-5.086 39.424-13.897 52.076-26.202 5.703-6.118 11.616-12.058 17.765-17.779-25.225-15.893-64.498-14.118-93.217 24.358zM374.499 75.601v162.799h274.999v-162.799h-274.999zM864.593 352.363c-4.898-7.71-10.189-15.543-15.223-23.142-22.46-30.080-61.269-43.17-93.086-22.938 6.417 5.879 12.599 11.968 18.526 18.257 24.269 21.504 59.098 30.771 89.783 27.823zM926.016 554.781c-0.013-0.237-0.021-0.472-0.026-0.709-0.516-23.674-13.252-47.238-32.375-59.996-10.27-6.805-21.419-10.351-33.348-10.628 5.581 23.753 4.766 45.713 33.481 74.692 9.655 9.826 20.74 17.794 32.286 23.387 0.405-9.334 0.397-18.208-0.017-26.746zM571.998 156.258h-120c-16.567 0-29.999-13.431-29.999-29.999s13.432-30.003 29.999-30.003h120c16.567 0 29.999 13.436 29.999 30.003s-13.431 29.999-29.999 29.999z" />
<glyph unicode="&#xe916;" glyph-name="eye" d="M989.239 460.962c-1.399 3.157-35.281 78.318-110.601 153.638-100.361 100.36-227.119 153.4-366.639 153.4s-266.28-53.040-366.64-153.4c-75.32-75.32-109.36-150.6-110.6-153.638-1.819-4.096-2.76-8.525-2.76-13.001 0-4.48 0.94-8.909 2.76-13.001 1.4-3.162 35.28-78.281 110.6-153.6 100.36-100.322 227.12-153.361 366.64-153.361s266.278 53.039 366.639 153.361c75.319 75.319 109.201 150.438 110.601 153.6 1.822 4.092 2.761 8.521 2.761 13.001 0 4.476-0.939 8.905-2.761 13.001zM512 192c-123.12 0-230.68 44.762-319.72 133.001-36.534 36.331-67.616 77.76-92.28 122.999 24.657 45.244 55.74 86.673 92.28 123 89.040 88.24 196.6 133 319.72 133s230.682-44.76 319.718-133c36.608-36.318 67.759-77.748 92.48-123-28.838-53.841-154.479-256-412.198-256zM512 640c-37.973 0-75.093-11.261-106.669-32.358s-56.183-51.084-70.716-86.166c-14.532-35.085-18.334-73.69-10.926-110.933s25.694-71.454 52.546-98.308c26.852-26.85 61.064-45.137 98.307-52.544 37.244-7.411 75.849-3.61 110.933 10.923 35.081 14.532 65.067 39.142 86.165 70.716 21.099 31.578 32.358 68.698 32.358 106.671-0.051 50.906-20.297 99.711-56.294 135.706-35.994 35.995-84.8 56.241-135.706 56.294zM512 320c-25.314 0-50.065 7.505-71.113 21.572-21.050 14.063-37.456 34.057-47.144 57.442-9.688 23.39-12.223 49.126-7.284 73.958 4.939 24.828 17.13 47.637 35.031 65.537 17.9 17.901 40.709 30.092 65.537 35.031 24.832 4.939 50.569 2.404 73.958-7.284 23.386-9.688 43.379-26.094 57.442-47.144 14.067-21.047 21.572-45.798 21.572-71.113 0-33.946-13.487-66.505-37.491-90.509s-56.559-37.491-90.509-37.491z" />
<glyph unicode="&#xe917;" glyph-name="eye-slash" d="M215.68 821.52c-2.81 3.168-6.221 5.746-10.035 7.586s-7.955 2.904-12.184 3.132c-4.228 0.227-8.46-0.387-12.449-1.807s-7.657-3.618-10.791-6.466c-3.134-2.848-5.671-6.289-7.465-10.125s-2.809-7.99-2.986-12.221c-0.177-4.231 0.488-8.455 1.956-12.427s3.709-7.613 6.595-10.713l76.96-84.68c-145.28-89.16-207.76-226.6-210.52-232.842-1.819-4.092-2.76-8.521-2.76-12.996 0-4.48 0.94-8.909 2.76-13.001 1.4-3.162 35.28-78.281 110.6-153.6 100.36-100.322 227.12-153.361 366.64-153.361 71.706-0.41 142.686 14.353 208.282 43.319l88-96.841c2.807-3.166 6.221-5.747 10.035-7.586s7.953-2.901 12.181-3.132c4.228-0.226 8.461 0.388 12.45 1.809 3.989 1.417 7.659 3.618 10.79 6.464 3.136 2.85 5.67 6.289 7.467 10.125 1.792 3.836 2.807 7.991 2.987 12.22 0.175 4.233-0.491 8.457-1.958 12.429s-3.708 7.612-6.592 10.714l-639.962 703.999zM405 518.161l166.678-183.403c-25.097-13.205-53.875-17.698-81.805-12.774-27.93 4.919-53.436 18.978-72.512 39.966-19.075 20.992-30.639 47.718-32.876 75.994s4.979 56.491 20.516 80.218zM512 192c-123.12 0-230.68 44.762-319.72 133.001-36.547 36.322-67.631 77.751-92.28 122.999 18.76 35.162 78.64 133.56 189.4 197.52l72-79c-27.875-35.7-42.231-80.107-40.531-125.368s19.346-88.465 49.82-121.971c30.474-33.51 71.811-55.168 116.709-61.141 44.898-5.978 90.462 4.109 128.64 28.48l58.923-64.798c-52.002-19.951-107.264-30.029-162.961-29.722zM536 573.72c-8.337 1.591-15.701 6.43-20.476 13.451-4.77 7.022-6.554 15.651-4.966 23.989 1.591 8.338 6.43 15.703 13.453 20.474s15.65 6.557 23.987 4.966c40.785-7.907 77.922-28.786 105.869-59.523s45.21-69.684 49.212-111.037c0.794-8.448-1.809-16.866-7.223-23.403-5.414-6.532-13.205-10.645-21.653-11.439-1.003-0.055-2.001-0.055-3.004 0-7.996-0.034-15.718 2.931-21.641 8.303-5.922 5.376-9.617 12.774-10.359 20.74-2.692 27.503-14.191 53.402-32.785 73.849-18.59 20.445-43.285 34.345-70.413 39.63zM989.12 434.961c-1.681-3.763-42.202-93.483-133.44-175.202-3.119-2.88-6.775-5.111-10.765-6.566-3.989-1.451-8.226-2.095-12.467-1.894s-8.401 1.242-12.233 3.063c-3.836 1.826-7.266 4.395-10.099 7.556-2.829 3.162-5.005 6.857-6.391 10.867-1.391 4.015-1.967 8.26-1.698 12.497 0.265 4.237 1.374 8.38 3.26 12.181 1.882 3.806 4.506 7.198 7.714 9.975 44.762 40.218 82.364 87.748 111.198 140.561-24.7 45.291-55.855 86.749-92.48 123.080-89.037 88.16-196.599 132.92-319.718 132.92-25.941 0.032-51.844-2.069-77.44-6.28-4.164-0.736-8.43-0.64-12.556 0.282s-8.027 2.653-11.48 5.092c-3.453 2.439-6.388 5.538-8.636 9.117s-3.765 7.57-4.463 11.739c-0.698 4.169-0.562 8.435 0.399 12.552s2.728 8.002 5.199 11.432c2.471 3.43 5.597 6.336 9.197 8.551s7.604 3.695 11.78 4.354c29.086 4.803 58.522 7.197 88 7.16 139.52 0 266.278-53.040 366.639-153.4 75.319-75.32 109.201-150.481 110.601-153.642 1.822-4.092 2.761-8.521 2.761-12.996 0-4.48-0.939-8.909-2.761-13.001h-0.119z" />
<glyph unicode="&#xe918;" glyph-name="fire" d="M573.521 888.601c-3.947 3.28-8.623 5.563-13.632 6.657-5.013 1.094-10.214 0.967-15.168-0.37s-9.51-3.846-13.291-7.313c-3.78-3.468-6.673-7.794-8.431-12.614l-88-241.64-96.64 93.64c-3.245 3.148-7.121 5.572-11.372 7.113s-8.78 2.164-13.288 1.828c-4.509-0.337-8.895-1.624-12.87-3.779s-7.448-5.128-10.19-8.722c-86.64-113.52-130.64-227.721-130.64-339.401 0-93.355 37.085-182.886 103.098-248.9s155.545-103.1 248.902-103.1c93.355 0 182.891 37.086 248.9 103.1 66.014 66.014 103.1 155.546 103.1 248.9 0 237.801-203.162 432.001-290.479 504.601zM735.561 346.641c-8.299-46.349-30.596-89.041-63.893-122.334-33.297-33.289-75.998-55.578-122.347-63.868-1.758-0.299-3.537-0.448-5.321-0.439-8.026 0.004-15.761 3.021-21.666 8.461-5.905 5.436-9.553 12.894-10.214 20.89-0.666 8 1.698 15.957 6.626 22.293s12.058 10.59 19.972 11.917c66.283 11.162 122.522 67.401 133.76 133.803 1.425 8.367 6.114 15.829 13.035 20.745 6.925 4.915 15.518 6.874 23.889 5.453 8.367-1.421 15.829-6.11 20.745-13.035 4.915-6.921 6.874-15.514 5.453-23.885h-0.038z" />
<glyph unicode="&#xe919;" glyph-name="game-center" d="M416 800h-192c-16.974 0-33.253-6.743-45.255-18.745s-18.745-28.281-18.745-45.255v-192c0-16.973 6.743-33.254 18.745-45.257s28.281-18.743 45.255-18.743h192c16.973 0 33.254 6.741 45.257 18.743s18.743 28.284 18.743 45.257v192c0 16.974-6.741 33.253-18.743 45.255s-28.284 18.745-45.257 18.745zM416 544h-192v192h192v-192zM800 800h-192c-16.973 0-33.254-6.743-45.257-18.745s-18.743-28.281-18.743-45.255v-192c0-16.973 6.741-33.254 18.743-45.257s28.284-18.743 45.257-18.743h192c16.973 0 33.254 6.741 45.257 18.743s18.743 28.284 18.743 45.257v192c0 16.974-6.741 33.253-18.743 45.255s-28.284 18.745-45.257 18.745zM800 544h-192v192h192v-192zM416 416h-192c-16.974 0-33.253-6.741-45.255-18.743s-18.745-28.284-18.745-45.257v-192c0-16.973 6.743-33.254 18.745-45.257s28.281-18.743 45.255-18.743h192c16.973 0 33.254 6.741 45.257 18.743s18.743 28.284 18.743 45.257v192c0 16.973-6.741 33.254-18.743 45.257s-28.284 18.743-45.257 18.743zM416 160h-192v192h192v-192zM800 416h-192c-16.973 0-33.254-6.741-45.257-18.743s-18.743-28.284-18.743-45.257v-192c0-16.973 6.741-33.254 18.743-45.257s28.284-18.743 45.257-18.743h192c16.973 0 33.254 6.741 45.257 18.743s18.743 28.284 18.743 45.257v192c0 16.973-6.741 33.254-18.743 45.257s-28.284 18.743-45.257 18.743zM800 160h-192v192h192v-192z" />
<glyph unicode="&#xe91a;" glyph-name="hand-deposit" d="M292.571 173.713h-27.428c-15.168 0-27.429 12.288-27.429 27.43 0 15.138 12.261 27.426 27.429 27.426h27.428c15.168 0 27.429-12.288 27.429-27.426 0-15.142-12.261-27.43-27.429-27.43zM813.713 530.287c45.367 0 82.287-36.919 82.287-82.287v-301.713c0-45.367-36.919-82.287-82.287-82.287h-603.427c-45.367 0-82.286 36.919-82.286 82.287v301.713c0 45.367 36.919 82.287 82.286 82.287h603.427zM813.713 118.857c15.142 0 27.43 12.318 27.43 27.43v301.713c0 15.113-12.288 27.43-27.43 27.43h-603.427c-15.141 0-27.429-12.318-27.429-27.43v-301.713c0-15.113 12.288-27.43 27.429-27.43h603.427zM410.322 675.465c-10.725 10.725-10.725 28.060 0 38.784s28.061 10.725 38.783 0l35.465-35.465v125.787c0 15.141 12.262 27.429 27.43 27.429s27.43-12.288 27.43-27.429v-125.787l35.465 35.465c10.722 10.725 28.058 10.725 38.784 0 10.722-10.724 10.722-28.059 0-38.784l-82.287-82.286c-5.35-5.348-12.369-8.036-19.392-8.036s-14.042 2.688-19.392 8.036l-82.286 82.286zM512 393.143c52.937 0 96-43.063 96-96s-43.063-96-96-96c-52.937 0-96 43.063-96 96s43.063 96 96 96zM470.857 297.143c0-22.686 18.462-41.143 41.143-41.143s41.143 18.458 41.143 41.143c0 22.682-18.462 41.143-41.143 41.143s-41.143-18.462-41.143-41.143zM758.857 365.713h-27.426c-15.168 0-27.43 12.288-27.43 27.43 0 15.138 12.262 27.426 27.43 27.426h27.426c15.168 0 27.43-12.288 27.43-27.426 0-15.142-12.262-27.43-27.43-27.43z" />
<glyph unicode="&#xe91b;" glyph-name="hand-withdraw" d="M292.571 472.218h-27.428c-15.168 0-27.429 12.399-27.429 27.674 0 15.279 12.261 27.678 27.429 27.678h27.428c15.168 0 27.429-12.399 27.429-27.678 0-15.275-12.261-27.674-27.429-27.674zM758.857 665.946h-27.426c-15.168 0-27.43 12.399-27.43 27.676s12.262 27.676 27.43 27.676h27.426c15.168 0 27.43-12.399 27.43-27.676s-12.262-27.676-27.43-27.676zM813.713 832h-603.427c-45.367 0-82.286-37.251-82.286-83.027v-304.433c0-45.773 36.919-83.025 82.286-83.025h603.427c45.367 0 82.287 37.252 82.287 83.025v304.433c0 45.776-36.919 83.027-82.287 83.027zM841.143 444.54c0-15.249-12.288-27.674-27.43-27.674h-603.427c-15.141 0-27.429 12.425-27.429 27.674v304.433c0 15.249 12.288 27.676 27.429 27.676h603.427c15.142 0 27.43-12.426 27.43-27.676v-304.433zM512 693.622c-52.937 0-96-43.451-96-96.865s43.063-96.866 96-96.866c52.937 0 96 43.451 96 96.866s-43.063 96.865-96 96.865zM512 555.243c-22.682 0-41.143 18.626-41.143 41.514s18.462 41.513 41.143 41.513c22.682 0 41.143-18.626 41.143-41.513s-18.462-41.514-41.143-41.514zM410.322 194.27c-10.725-10.82-10.725-28.314 0-39.134l82.286-83.025c5.35-5.397 12.369-8.111 19.392-8.111s14.042 2.714 19.392 8.111l82.287 83.025c10.722 10.82 10.722 28.314 0 39.134-10.726 10.82-28.062 10.82-38.784 0l-35.465-35.785v126.921c0 15.275-12.262 27.674-27.43 27.674s-27.43-12.399-27.43-27.674v-126.921l-35.465 35.785c-10.722 10.82-28.058 10.82-38.783 0z" />
<glyph unicode="&#xe91c;" glyph-name="history" d="M544 639.999v-173.878l144.482-86.682c7.275-4.369 12.518-11.452 14.575-19.691 2.057-8.235 0.755-16.951-3.618-24.23-4.369-7.275-11.452-12.518-19.691-14.575-8.235-2.057-16.951-0.755-24.226 3.614l-160 96c-4.736 2.846-8.657 6.869-11.375 11.678-2.722 4.809-4.147 10.24-4.147 15.765v191.999c0 8.487 3.371 16.626 9.374 22.627 5.999 6.001 14.14 9.373 22.626 9.373s16.627-3.372 22.626-9.373c6.003-6.001 9.374-14.141 9.374-22.627zM512 831.999c-50.479 0.126-100.484-9.761-147.118-29.089s-88.971-47.712-124.562-83.511c-29.080-29.44-54.92-57.76-80.32-87.4v72c0 8.487-3.372 16.626-9.373 22.627s-14.141 9.373-22.627 9.373c-8.487 0-16.626-3.372-22.627-9.373s-9.373-14.141-9.373-22.627v-160c0-8.487 3.372-16.626 9.373-22.629 6.001-5.999 14.141-9.37 22.627-9.37h160c8.487 0 16.626 3.371 22.627 9.37 6.001 6.003 9.373 14.142 9.373 22.629s-3.372 16.626-9.373 22.627c-6.001 6.001-14.141 9.373-22.627 9.373h-92c28.6 33.68 57.080 65.4 89.56 98.28 44.474 44.474 101.068 74.856 162.709 87.349 61.645 12.493 125.602 6.544 183.881-17.104 58.283-23.648 108.301-63.947 143.812-115.861 35.507-51.914 54.929-113.143 55.838-176.029 0.909-62.891-16.734-124.655-50.726-177.57-33.988-52.919-82.825-94.652-140.395-119.974-57.574-25.323-121.331-33.122-183.309-22.417s-119.427 39.437-165.169 82.607c-3.057 2.889-6.653 5.146-10.583 6.647-3.93 1.498-8.117 2.21-12.322 2.091s-8.345-1.067-12.184-2.786c-3.839-1.715-7.302-4.177-10.191-7.232-2.889-3.059-5.148-6.652-6.647-10.586-1.499-3.93-2.21-8.115-2.091-12.318 0.119-4.207 1.065-8.346 2.784-12.186s4.177-7.3 7.234-10.193c45.578-43.008 100.99-74.21 161.4-90.88 60.412-16.674 123.981-18.304 185.169-4.757 61.184 13.551 118.127 41.865 165.85 82.483 47.727 40.614 84.787 92.292 107.947 150.524s31.714 121.246 24.922 183.543c-6.797 62.3-28.732 121.99-63.902 173.859-35.166 51.87-82.496 94.345-137.852 123.718-55.36 29.373-117.065 44.751-179.733 44.791z" />
<glyph unicode="&#xe91d;" glyph-name="info" d="M512 874.667c-84.386 0-166.878-25.024-237.043-71.906s-124.852-113.519-157.145-191.482c-32.294-77.962-40.743-163.752-24.28-246.517s57.099-158.788 116.77-218.462c59.67-59.669 135.695-100.305 218.46-116.766 82.765-16.465 168.555-8.017 246.515 24.277 77.965 32.294 144.602 86.98 191.484 157.146s71.906 152.657 71.906 237.043c-0.119 113.123-45.111 221.577-125.099 301.567-79.991 79.989-188.446 124.98-301.568 125.1zM512 86.976c-71.403 0-141.204 21.171-200.575 60.843s-105.644 96.055-132.969 162.022c-27.325 65.971-34.475 138.56-20.544 208.593 13.93 70.031 48.314 134.359 98.805 184.849s114.819 84.875 184.849 98.805c70.033 13.93 142.622 6.781 208.593-20.544 65.967-27.325 122.351-73.599 162.022-132.969s60.843-129.172 60.843-200.575c-0.107-95.718-38.178-187.482-105.86-255.164s-159.445-105.754-255.164-105.86zM577.643 251.076c0-8.704-3.46-17.050-9.613-23.206-6.157-6.157-14.507-9.613-23.211-9.613-17.408 0-34.103 6.916-46.413 19.226s-19.226 29.005-19.226 46.417v164.1c-8.704 0-17.054 3.456-23.211 9.613-6.153 6.157-9.613 14.502-9.613 23.206s3.46 17.054 9.613 23.211c6.157 6.153 14.507 9.613 23.211 9.613 17.408 0 34.103-6.916 46.413-19.226 12.309-12.314 19.226-29.009 19.226-46.417v-164.1c8.704 0 17.054-3.46 23.211-9.613 6.153-6.157 9.613-14.507 9.613-23.211zM446.357 628.513c0 9.737 2.889 19.255 8.299 27.351s13.099 14.406 22.093 18.132c8.998 3.726 18.897 4.701 28.446 2.801s18.321-6.589 25.207-13.474c6.882-6.885 11.571-15.657 13.474-25.207 1.899-9.55 0.922-19.449-2.803-28.445s-10.035-16.684-18.133-22.094c-8.094-5.409-17.613-8.297-27.349-8.297-13.056 0-25.579 5.187-34.812 14.419s-14.421 21.754-14.421 34.811z" />
<glyph unicode="&#xe91e;" glyph-name="lock-key" d="M512 512c-26.897-0.009-52.89-9.698-73.233-27.294-20.342-17.591-33.673-41.92-37.556-68.535s1.94-53.739 16.407-76.412c14.467-22.673 36.611-39.386 62.382-47.078v-68.681c0-8.486 3.371-16.627 9.374-22.626 5.999-6.003 14.14-9.374 22.626-9.374s16.627 3.371 22.626 9.374c6.003 5.999 9.374 14.14 9.374 22.626v68.681c25.771 7.693 47.915 24.405 62.383 47.078 14.464 22.673 20.288 49.796 16.405 76.412s-17.212 50.944-37.555 68.535c-20.343 17.596-46.336 27.285-73.233 27.294zM512 352c-9.493 0-18.773 2.816-26.667 8.090s-14.046 12.77-17.681 21.542c-3.631 8.768-4.582 18.419-2.731 27.733 1.852 9.31 6.426 17.865 13.137 24.576s15.266 11.285 24.576 13.137c9.314 1.852 18.965 0.9 27.733-2.731 8.772-3.635 16.269-9.788 21.542-17.681s8.090-17.173 8.090-26.667c0-12.732-5.056-24.939-14.059-33.941s-21.21-14.059-33.941-14.059zM832 640h-128v96c0 50.921-20.228 99.758-56.235 135.764s-84.843 56.236-135.765 56.236c-50.923 0-99.758-20.229-135.764-56.236s-56.236-84.843-56.236-135.764v-96h-128c-16.974 0-33.253-6.743-45.255-18.745s-18.745-28.281-18.745-45.255v-448c0-16.973 6.743-33.254 18.745-45.257s28.281-18.743 45.255-18.743h640c16.973 0 33.254 6.741 45.257 18.743s18.743 28.284 18.743 45.257v448c0 16.974-6.741 33.253-18.743 45.255s-28.284 18.745-45.257 18.745zM384 736c0 33.948 13.486 66.505 37.49 90.51s56.564 37.49 90.51 37.49c33.946 0 66.505-13.486 90.509-37.49s37.491-56.562 37.491-90.51v-96h-256v96zM832 128h-640v448h640v-448z" />
<glyph unicode="&#xe91f;" glyph-name="logout" d="M744.145 304.218c-8.107 0-16.213 2.987-22.613 9.387-12.373 12.373-12.373 32.853 0 45.227l86.613 86.613-86.613 86.613c-12.373 12.372-12.373 32.852 0 45.225s32.853 12.373 45.227 0l109.227-109.225c12.373-12.373 12.373-32.853 0-45.227l-109.227-109.227c-6.4-6.4-14.507-9.387-22.613-9.387zM850.338 413.436h-433.921c-17.493 0-32 14.507-32 32s14.507 32 32 32h433.921c17.493 0 32-14.507 32-32s-14.507-32-32-32zM501.751 74.667c-219.735 0-373.335 153.6-373.335 373.333s153.6 373.333 373.335 373.333c17.493 0 32-14.507 32-32s-14.507-32-32-32c-182.188 0-309.335-127.147-309.335-309.333s127.147-309.333 309.335-309.333c17.493 0 32-14.507 32-32s-14.507-32-32-32z" />
<glyph unicode="&#xe920;" glyph-name="menu" d="M896 448c0-8.486-3.371-16.627-9.374-22.626-5.999-6.003-14.14-9.374-22.626-9.374h-704c-8.487 0-16.626 3.371-22.627 9.374-6.001 5.999-9.373 14.14-9.373 22.626s3.372 16.627 9.373 22.626c6.001 6.003 14.141 9.374 22.627 9.374h704c8.486 0 16.627-3.371 22.626-9.374 6.003-5.999 9.374-14.14 9.374-22.626zM160 672h704c8.486 0 16.627 3.372 22.626 9.373 6.003 6.001 9.374 14.141 9.374 22.627s-3.371 16.626-9.374 22.627c-5.999 6.001-14.14 9.373-22.626 9.373h-704c-8.487 0-16.626-3.372-22.627-9.373s-9.373-14.141-9.373-22.627c0-8.487 3.372-16.626 9.373-22.627s14.141-9.373 22.627-9.373zM864 224h-704c-8.487 0-16.626-3.371-22.627-9.374-6.001-5.999-9.373-14.14-9.373-22.626s3.372-16.627 9.373-22.626c6.001-6.003 14.141-9.374 22.627-9.374h704c8.486 0 16.627 3.371 22.626 9.374 6.003 5.999 9.374 14.14 9.374 22.626s-3.371 16.627-9.374 22.626c-5.999 6.003-14.14 9.374-22.626 9.374z" />
<glyph unicode="&#xe921;" glyph-name="phone" d="M889.481 326.161l-188.962 84.681c-9.779 4.181-20.454 5.862-31.049 4.885s-20.779-4.582-29.628-10.487c-1.045-0.687-2.048-1.434-3.004-2.24l-97.357-82.999c-61.683 29.961-125.361 93.158-155.322 154.039l83.121 98.841c0.798 1 1.557 2 2.278 3.080 5.777 8.828 9.284 18.947 10.206 29.457 0.917 10.51-0.772 21.085-4.924 30.783v0.48l-84.681 188.76c-5.491 12.669-14.931 23.223-26.913 30.086s-25.861 9.667-39.567 7.994c-54.201-7.133-103.953-33.751-139.962-74.884s-55.816-93.968-55.718-148.636c0-317.598 258.4-576 576-576 54.669-0.098 107.503 19.708 148.638 55.718 41.131 36.011 67.75 85.76 74.884 139.964 1.673 13.7-1.122 27.575-7.979 39.556s-17.399 21.423-30.063 26.923zM704 128c-135.744 0.149-265.89 54.14-361.875 150.127-95.987 95.983-149.977 226.129-150.125 361.873-0.151 39.060 13.922 76.84 39.59 106.284s61.175 48.538 99.89 53.716c-0.016-0.16-0.016-0.32 0-0.48l84-188-82.68-98.961c-0.839-0.964-1.601-1.993-2.28-3.081-6.019-9.233-9.551-19.87-10.251-30.874s1.452-21.999 6.251-31.923c36.24-74.121 110.92-148.241 185.839-184.439 10.001-4.757 21.060-6.835 32.102-6.037 11.042 0.802 21.687 4.45 30.899 10.594 1.028 0.691 2.014 1.442 2.961 2.24l97.237 82.961 188.002-84.198c0 0 0.32 0 0.439 0-5.116-38.771-24.179-74.351-53.632-100.083-29.449-25.728-67.26-39.851-106.368-39.718z" />
<glyph unicode="&#xe922;" glyph-name="piggy-bank" d="M768 496c0-9.493-2.816-18.773-8.090-26.667s-12.77-14.046-21.542-17.681c-8.768-3.631-18.419-4.582-27.733-2.731-9.31 1.852-17.865 6.426-24.576 13.137s-11.285 15.266-13.137 24.576c-1.852 9.314-0.9 18.965 2.731 27.733 3.635 8.772 9.788 16.269 17.681 21.542s17.173 8.090 26.667 8.090c12.732 0 24.939-5.057 33.941-14.059s14.059-21.21 14.059-33.941zM608 704h-160c-8.486 0-16.627-3.372-22.627-9.373s-9.373-14.141-9.373-22.627c0-8.487 3.372-16.626 9.373-22.627s14.141-9.373 22.627-9.373h160c8.486 0 16.627 3.372 22.626 9.373 6.003 6.001 9.374 14.141 9.374 22.627s-3.371 16.626-9.374 22.627c-5.999 6.001-14.14 9.373-22.626 9.373zM992 512v-128c0-25.459-10.116-49.877-28.117-67.883-18.005-18.001-42.423-28.117-67.883-28.117h-9.438l-64.841-181.521c-4.442-12.433-12.617-23.189-23.407-30.793-10.795-7.607-23.671-11.686-36.873-11.686h-50.88c-13.205 0-26.082 4.079-36.877 11.686-10.79 7.603-18.965 18.359-23.407 30.793l-7.68 21.521h-229.199l-7.68-21.521c-4.439-12.433-12.615-23.189-23.407-30.793-10.792-7.607-23.671-11.686-36.873-11.686h-50.88c-13.202 0-26.082 4.079-36.873 11.686-10.792 7.603-18.967 18.359-23.407 30.793l-50.28 140.642c-47.833 54.135-77.783 121.719-85.76 193.519-10.327-5.423-18.975-13.568-25.010-23.552-6.035-9.98-9.226-21.423-9.23-33.088 0-8.486-3.372-16.627-9.373-22.626-6.001-6.003-14.141-9.374-22.627-9.374s-16.626 3.371-22.627 9.374c-6.001 5.999-9.373 14.14-9.373 22.626 0.049 28.535 9.633 56.239 27.229 78.707s42.196 38.409 69.891 45.291c7.149 88.189 47.201 170.462 112.203 230.485s150.201 93.405 238.677 93.517h416c8.486 0 16.627-3.372 22.626-9.373 6.003-6.001 9.374-14.141 9.374-22.627s-3.371-16.626-9.374-22.627c-5.999-6.001-14.14-9.373-22.626-9.373h-85.559c53.107-37.26 94.874-88.481 120.678-148 1.719-4 3.401-8 5.001-12 24.030-2.039 46.409-13.047 62.69-30.834 16.286-17.787 25.276-41.051 25.19-65.166zM928 512c0 8.486-3.371 16.627-9.374 22.627-5.999 6.001-14.14 9.373-22.626 9.373h-14.639c-6.818-0.007-13.457 2.161-18.953 6.191s-9.566 9.708-11.61 16.209c-18.334 58.507-54.886 109.623-104.32 145.89s-109.167 55.786-170.479 55.71h-128c-55.891 0.003-110.576-16.257-157.385-46.798s-83.721-74.042-106.234-125.198c-22.513-51.157-29.653-107.761-20.552-162.903 9.102-55.147 34.053-106.453 71.811-147.661 2.887-3.14 5.118-6.827 6.56-10.842l52.36-146.598h50.88l15.28 42.761c2.218 6.212 6.303 11.588 11.695 15.39s11.827 5.845 18.425 5.85h274.321c6.596-0.004 13.030-2.048 18.423-5.85s9.476-9.178 11.695-15.39l15.283-42.761h50.88l72.439 202.761c2.219 6.212 6.302 11.588 11.695 15.39 5.389 3.802 11.827 5.845 18.423 5.85h32c8.486 0 16.627 3.371 22.626 9.374 6.003 5.999 9.374 14.14 9.374 22.626v128z" />
<glyph unicode="&#xe923;" glyph-name="play" d="M512 874.667c-235.279 0-426.667-191.407-426.667-426.667s191.388-426.667 426.667-426.667c235.277 0 426.667 191.407 426.667 426.667s-191.39 426.667-426.667 426.667zM681.617 433.050l-248.887-160c-2.914-1.89-6.285-2.829-9.618-2.829-2.917 0-5.868 0.73-8.507 2.172-5.73 3.123-9.271 9.097-9.271 15.607v320c0 6.51 3.542 12.483 9.271 15.608 5.625 3.090 12.672 2.9 18.125-0.66l248.887-159.998c5.073-3.264 8.162-8.909 8.162-14.95s-3.089-11.682-8.162-14.95z" />
<glyph unicode="&#xe924;" glyph-name="qr-code" d="M416 800h-192c-16.974 0-33.253-6.743-45.255-18.745s-18.745-28.281-18.745-45.255v-192c0-16.973 6.743-33.254 18.745-45.257s28.281-18.743 45.255-18.743h192c16.973 0 33.254 6.741 45.257 18.743s18.743 28.284 18.743 45.257v192c0 16.974-6.741 33.253-18.743 45.255s-28.284 18.745-45.257 18.745zM416 544h-192v192h192v-192zM416 416h-192c-16.974 0-33.253-6.741-45.255-18.743s-18.745-28.284-18.745-45.257v-192c0-16.973 6.743-33.254 18.745-45.257s28.281-18.743 45.255-18.743h192c16.973 0 33.254 6.741 45.257 18.743s18.743 28.284 18.743 45.257v192c0 16.973-6.741 33.254-18.743 45.257s-28.284 18.743-45.257 18.743zM416 160h-192v192h192v-192zM800 800h-192c-16.973 0-33.254-6.743-45.257-18.745s-18.743-28.281-18.743-45.255v-192c0-16.973 6.741-33.254 18.743-45.257s28.284-18.743 45.257-18.743h192c16.973 0 33.254 6.741 45.257 18.743s18.743 28.284 18.743 45.257v192c0 16.974-6.741 33.253-18.743 45.255s-28.284 18.745-45.257 18.745zM800 544h-192v192h192v-192zM544 256v128c0 8.486 3.371 16.627 9.374 22.626 5.999 6.003 14.14 9.374 22.626 9.374s16.627-3.371 22.626-9.374c6.003-5.999 9.374-14.14 9.374-22.626v-128c0-8.486-3.371-16.627-9.374-22.626-5.999-6.003-14.14-9.374-22.626-9.374s-16.627 3.371-22.626 9.374c-6.003 5.999-9.374 14.14-9.374 22.626zM864 320c0-8.486-3.371-16.627-9.374-22.626-5.999-6.003-14.14-9.374-22.626-9.374h-96v-160c0-8.486-3.371-16.627-9.374-22.626-5.999-6.003-14.14-9.374-22.626-9.374h-128c-8.486 0-16.627 3.371-22.626 9.374-6.003 5.999-9.374 14.14-9.374 22.626s3.371 16.627 9.374 22.626c5.999 6.003 14.14 9.374 22.626 9.374h96v224c0 8.486 3.371 16.627 9.374 22.626 5.999 6.003 14.14 9.374 22.626 9.374s16.627-3.371 22.626-9.374c6.003-5.999 9.374-14.14 9.374-22.626v-32h96c8.486 0 16.627-3.371 22.626-9.374 6.003-5.999 9.374-14.14 9.374-22.626zM864 192v-64c0-8.486-3.371-16.627-9.374-22.626-5.999-6.003-14.14-9.374-22.626-9.374s-16.627 3.371-22.626 9.374c-6.003 5.999-9.374 14.14-9.374 22.626v64c0 8.486 3.371 16.627 9.374 22.626 5.999 6.003 14.14 9.374 22.626 9.374s16.627-3.371 22.626-9.374c6.003-5.999 9.374-14.14 9.374-22.626z" />
<glyph unicode="&#xe925;" glyph-name="seal-percent" d="M903.441 548.72c-15.083 15.76-30.682 32-36.561 46.28-5.44 13.080-5.76 34.76-6.080 55.76-0.602 39.040-1.242 83.28-32 114.040s-74.999 31.4-114.039 32c-21.001 0.32-42.679 0.64-55.761 6.080-14.238 5.88-30.519 21.48-46.281 36.56-27.601 26.52-58.957 56.56-100.719 56.56s-73.079-30.040-100.72-56.56c-15.76-15.080-32-30.68-46.28-36.56-13-5.44-34.76-5.76-55.76-6.080-39.040-0.6-83.28-1.24-114.040-32s-31.2-75-32-114.040c-0.32-21-0.64-42.68-6.080-55.76-5.88-14.24-21.48-30.52-36.56-46.28-26.52-27.641-56.56-58.958-56.56-100.72s30.040-73.079 56.56-100.719c15.080-15.761 30.68-32 36.56-46.281 5.44-13.082 5.76-34.761 6.080-55.761 0.6-39.040 1.24-83.281 32-114.039s75-31.398 114.040-32c21-0.32 42.68-0.64 55.76-6.080 14.24-5.879 30.52-21.478 46.28-36.561 27.602-26.517 58.958-56.559 100.72-56.559s73.079 30.042 100.719 56.559c15.761 15.083 32 30.682 46.281 36.561 13.082 5.44 34.761 5.76 55.761 6.080 39.040 0.602 83.281 1.242 114.039 32s31.398 74.999 32 114.039c0.32 21.001 0.64 42.679 6.080 55.761 5.879 14.238 21.478 30.519 36.561 46.281 26.517 27.639 56.559 58.957 56.559 100.719s-30.042 73.079-56.559 100.72zM857.242 391.561c-19.162-20.002-39.002-40.683-49.523-66.082-10.078-24.397-10.517-52.279-10.918-79.279-0.401-27.998-0.841-57.318-13.278-69.722-12.442-12.399-41.562-12.877-69.722-13.278-26.999-0.401-54.882-0.841-79.279-10.918-25.399-10.522-46.080-30.362-66.082-49.523-19.998-19.157-40.439-38.758-56.439-38.758s-36.599 19.682-56.439 38.758c-19.84 19.081-40.681 39.002-66.080 49.523-24.4 10.078-52.28 10.517-79.28 10.918-28 0.401-57.32 0.841-69.72 13.278-12.4 12.442-12.88 41.562-13.28 69.722-0.4 26.999-0.84 54.882-10.92 79.279-10.52 25.399-30.36 46.080-49.52 66.082-19.16 19.998-38.76 40.439-38.76 56.439s19.68 36.561 38.76 56.439c19.080 19.878 39 40.681 49.52 66.080 10.080 24.4 10.52 52.28 10.92 79.28 0.4 28 0.84 57.32 13.28 69.72s41.56 12.88 69.72 13.28c27 0.4 54.88 0.84 79.28 10.92 25.4 10.52 46.078 30.36 66.080 49.52 19.998 19.16 40.439 38.76 56.439 38.76s36.599-19.68 56.439-38.76c19.84-19.080 40.683-39 66.082-49.52 24.397-10.080 52.279-10.52 79.279-10.92 27.998-0.4 57.318-0.84 69.722-13.28 12.399-12.44 12.877-41.56 13.278-69.72 0.401-27 0.841-54.88 10.918-79.28 10.522-25.4 30.362-46.078 49.523-66.080 19.157-19.998 38.758-40.439 38.758-56.439s-19.682-36.561-38.758-56.439zM480 576c0 18.987-5.632 37.548-16.179 53.335s-25.54 28.092-43.083 35.358c-17.542 7.266-36.844 9.167-55.466 5.463s-35.728-12.847-49.154-26.273c-13.426-13.426-22.569-30.531-26.273-49.154s-1.803-37.924 5.463-55.466c7.266-17.543 19.571-32.536 35.358-43.083s34.348-16.179 53.335-16.179c25.461 0 49.877 10.116 67.883 28.117 18.001 18.005 28.117 42.422 28.117 67.883zM352 576c0 6.329 1.877 12.516 5.393 17.778s8.514 9.364 14.361 11.786c5.847 2.422 12.281 3.056 18.489 1.821s11.909-4.282 16.384-8.758c4.475-4.475 7.523-10.177 8.758-16.384s0.601-12.642-1.821-18.489c-2.422-5.847-6.523-10.845-11.786-14.361s-11.449-5.393-17.778-5.393c-8.487 0-16.626 3.372-22.627 9.373s-9.373 14.141-9.373 22.627zM640 416c-18.987 0-37.547-5.632-53.333-16.179s-28.092-25.54-35.358-43.085c-7.266-17.54-9.169-36.843-5.466-55.467 3.703-18.62 12.847-35.725 26.274-49.152s30.532-22.571 49.152-26.274c18.624-3.703 37.926-1.801 55.467 5.466 17.545 7.266 32.538 19.571 43.085 35.358s16.179 34.347 16.179 53.333c0 25.459-10.116 49.877-28.117 67.883-18.005 18.001-42.423 28.117-67.883 28.117zM640 288c-6.327 0-12.514 1.877-17.779 5.393-5.261 3.516-9.361 8.512-11.785 14.362-2.423 5.845-3.055 12.279-1.822 18.487 1.237 6.208 4.284 11.908 8.759 16.384s10.176 7.522 16.384 8.759c6.208 1.233 12.642 0.602 18.487-1.822 5.85-2.423 10.846-6.524 14.362-11.785 3.516-5.265 5.393-11.452 5.393-17.779 0-8.486-3.371-16.627-9.374-22.626-5.999-6.003-14.14-9.374-22.626-9.374zM694.639 585.36l-319.999-319.999c-2.973-2.974-6.503-5.333-10.388-6.942s-8.048-2.436-12.253-2.436c-4.205 0-8.368 0.828-12.253 2.436s-7.414 3.968-10.388 6.942c-2.973 2.974-5.331 6.502-6.941 10.385-1.609 3.887-2.437 8.051-2.437 12.254s0.828 8.367 2.437 12.254c1.609 3.883 3.968 7.411 6.941 10.385l320.001 320.001c2.974 2.973 6.502 5.331 10.385 6.941 3.887 1.609 8.051 2.437 12.254 2.437s8.367-0.828 12.254-2.437c3.883-1.609 7.411-3.968 10.385-6.941s5.333-6.503 6.942-10.388c1.609-3.884 2.436-8.048 2.436-12.253s-0.828-8.368-2.436-12.253c-1.609-3.885-3.968-7.414-6.942-10.388z" />
<glyph unicode="&#xe926;" glyph-name="search1" d="M918.639 86.643l-200.277 200.239c58.048 69.692 86.993 159.078 80.815 249.57s-47.006 175.115-113.988 236.271c-66.982 61.155-154.961 94.133-245.641 92.072-90.677-2.061-177.069-39.001-241.204-103.136s-101.076-150.528-103.136-241.206c-2.061-90.675 30.917-178.658 92.072-245.641s145.78-107.81 236.271-113.988c90.49-6.178 179.881 22.767 249.573 80.819l200.239-200.282c2.974-2.974 6.502-5.333 10.385-6.942 3.887-1.609 8.051-2.436 12.254-2.436s8.367 0.828 12.254 2.436c3.883 1.609 7.411 3.968 10.385 6.942s5.333 6.502 6.942 10.389c1.609 3.883 2.436 8.047 2.436 12.25 0 4.207-0.828 8.371-2.436 12.254s-3.968 7.415-6.942 10.389zM160 512c0 56.962 16.891 112.644 48.537 160.006s76.625 84.275 129.251 106.073c52.625 21.798 110.533 27.501 166.4 16.389 55.863-11.113 107.183-38.542 147.46-78.819s67.708-91.594 78.818-147.461c11.115-55.867 5.41-113.775-16.388-166.4s-58.714-97.604-106.074-129.25c-47.36-31.646-103.044-48.538-160.004-48.538-76.356 0.085-149.561 30.455-203.553 84.446-53.992 53.995-84.362 127.198-84.447 203.554z" />
<glyph unicode="&#xe927;" glyph-name="setting" d="M938.667 490.667v-85.333c-0.013-11.311-4.51-22.157-12.51-30.157s-18.846-12.497-30.157-12.51h-60.813c-7.633-29.013-19.179-56.853-34.321-82.752l43.051-43.17c7.94-8.009 12.399-18.829 12.395-30.11-0.004-11.277-4.463-22.097-12.407-30.101l-60.446-60.437c-8.107-7.753-18.893-12.083-30.11-12.083-11.221 0-22.007 4.331-30.114 12.083l-43.149 43.038c-25.899-15.142-53.739-26.688-82.752-34.321v-60.813c-0.013-11.311-4.51-22.157-12.51-30.157s-18.846-12.497-30.157-12.51h-85.333c-11.311 0.013-22.157 4.51-30.157 12.51s-12.497 18.846-12.51 30.157v60.813c-17.623 4.668-34.835 10.761-51.465 18.227-2.086 0.96-3.91 2.406-5.32 4.215-1.41 1.813-2.364 3.934-2.781 6.191s-0.286 4.582 0.383 6.78c0.669 2.193 1.856 4.194 3.461 5.837l60.445 60.591c1.818 1.818 4.092 3.11 6.583 3.738 2.492 0.631 5.107 0.572 7.569-0.162 21.559-6.477 43.947-9.771 66.458-9.783 45.005 0 89.003 13.346 126.421 38.349 37.423 25.003 66.59 60.544 83.814 102.123 17.22 41.583 21.726 87.334 12.949 131.477-8.781 44.141-30.455 84.687-62.281 116.512-31.821 31.824-72.371 53.497-116.51 62.277-44.143 8.78-89.894 4.274-131.476-12.949-41.58-17.223-77.12-46.39-102.124-83.811s-38.35-81.418-38.35-126.423c0.020-22.468 3.317-44.809 9.785-66.325 0.737-2.458 0.794-5.073 0.166-7.561s-1.919-4.757-3.735-6.571l-60.59-60.587c-1.638-1.609-3.641-2.799-5.838-3.473s-4.523-0.806-6.782-0.393c-2.26 0.418-4.386 1.37-6.199 2.782s-3.259 3.238-4.216 5.329c-7.459 16.631-13.553 33.843-18.223 51.465h-60.812c-11.312 0.013-22.157 4.51-30.156 12.51s-12.498 18.846-12.51 30.157v85.333c0.012 11.311 4.512 22.157 12.51 30.157s18.844 12.497 30.156 12.51h60.812c7.633 29.015 19.179 56.856 34.32 82.757l-43.049 43.166c-7.942 8.007-12.398 18.829-12.395 30.107s4.463 22.098 12.41 30.101l60.444 60.437c8.107 7.755 18.893 12.083 30.111 12.083s22.004-4.328 30.111-12.083l43.153-43.035c25.898 15.142 53.737 26.688 82.75 34.32v60.812c0.013 11.312 4.51 22.157 12.51 30.156s18.846 12.498 30.157 12.51h85.333c11.311-0.012 22.157-4.512 30.157-12.51s12.497-18.844 12.51-30.156v-60.812c29.013-7.632 56.853-19.178 82.752-34.32l43.17 43.049c8.111 7.747 18.893 12.068 30.11 12.066 11.213-0.003 21.995-4.329 30.101-12.080l60.437-60.444c7.949-8.006 12.407-18.83 12.407-30.111s-4.459-22.106-12.407-30.111l-43.038-43.145c15.142-25.901 26.688-53.743 34.321-82.757h60.813c11.311-0.013 22.157-4.51 30.157-12.51s12.497-18.846 12.51-30.157zM674.005 520.589c-0.789 2.278-2.146 4.322-3.938 5.939-1.792 1.613-3.959 2.748-6.31 3.302-2.347 0.55-4.796 0.503-7.121-0.145s-4.446-1.873-6.17-3.558l-64.717-64.725-45.257 15.091-15.083 45.257 64.717 64.716c1.685 1.724 2.91 3.846 3.558 6.17s0.7 4.774 0.145 7.122c-0.55 2.349-1.69 4.52-3.302 6.311-1.617 1.792-3.661 3.146-5.939 3.938-24.354 8.222-50.487 9.679-75.605 4.215-25.122-5.463-48.286-17.643-67.025-35.24-18.742-17.597-32.355-39.95-39.388-64.674-7.033-24.73-7.223-50.901-0.55-75.725l-294.611-294.613c-13.335-13.333-20.827-31.42-20.827-50.278s7.492-36.949 20.827-50.283c13.335-13.333 31.422-20.826 50.281-20.826s36.946 7.492 50.281 20.826l294.611 294.613c24.823-6.677 50.995-6.485 75.725 0.546 24.725 7.036 47.078 20.646 64.674 39.39 17.596 18.739 29.777 41.903 35.238 67.025 5.466 25.118 4.006 51.251-4.215 75.605z" />
<glyph unicode="&#xe928;" glyph-name="shield-check" d="M832 800h-640c-16.974 0-33.253-6.743-45.255-18.745s-18.745-28.281-18.745-45.255v-224c0-210.88 102.080-338.679 187.72-408.759 92.24-75.439 184-101.039 187.998-102.123 5.5-1.493 11.302-1.493 16.802 0 3.998 1.084 95.642 26.684 187.998 102.123 85.402 70.080 187.482 197.879 187.482 408.759v224c0 16.974-6.741 33.253-18.743 45.255s-28.284 18.745-45.257 18.745zM832 512c0-148.279-54.639-268.638-162.402-357.679-46.908-38.63-100.254-68.689-157.598-88.802-56.593 19.763-109.282 49.289-155.68 87.241-109.040 89.199-164.32 210.039-164.32 359.241v224h640v-224zM329.36 393.361c-6.004 6.003-9.378 14.148-9.378 22.639s3.373 16.636 9.378 22.639c6.005 6.007 14.149 9.378 22.64 9.378s16.635-3.371 22.64-9.378l73.36-73.399 201.361 201.401c2.974 2.973 6.502 5.331 10.385 6.941 3.887 1.609 8.051 2.437 12.254 2.437s8.367-0.828 12.254-2.437c3.883-1.609 7.411-3.968 10.385-6.941s5.333-6.503 6.942-10.388c1.609-3.884 2.436-8.048 2.436-12.253s-0.828-8.368-2.436-12.254c-1.609-3.883-3.968-7.411-6.942-10.385l-224-224c-2.97-2.978-6.498-5.338-10.385-6.946-3.883-1.613-8.047-2.441-12.254-2.441s-8.371 0.828-12.254 2.441c-3.887 1.609-7.415 3.968-10.386 6.946l-96 96z" />
<glyph unicode="&#xe929;" glyph-name="shield-check-fill" d="M832 800h-640c-16.974 0-33.253-6.743-45.255-18.745s-18.745-28.281-18.745-45.255v-224c0-210.88 102.080-338.679 187.72-408.759 92.24-75.439 184-101.039 187.998-102.123 5.5-1.493 11.302-1.493 16.802 0 3.998 1.084 95.642 26.684 187.998 102.123 85.402 70.080 187.482 197.879 187.482 408.759v224c0 16.974-6.741 33.253-18.743 45.255s-28.284 18.745-45.257 18.745zM694.72 521.361l-224-224c-2.974-2.978-6.502-5.338-10.385-6.946-3.887-1.613-8.051-2.441-12.254-2.441-4.207 0-8.371 0.828-12.254 2.441-3.887 1.609-7.415 3.968-10.387 6.946l-96 96c-6.004 6.003-9.378 14.148-9.378 22.639s3.373 16.636 9.378 22.639c6.004 6.007 14.148 9.378 22.64 9.378s16.636-3.371 22.64-9.378l73.28-73.399 201.361 201.401c2.974 2.973 6.502 5.331 10.385 6.941 3.887 1.609 8.051 2.437 12.254 2.437s8.367-0.828 12.254-2.437c3.883-1.609 7.411-3.968 10.385-6.941s5.333-6.503 6.942-10.388c1.609-3.884 2.436-8.048 2.436-12.253s-0.828-8.368-2.436-12.254c-1.609-3.883-3.968-7.411-6.942-10.385h0.081z" />
<glyph unicode="&#xe92a;" glyph-name="spinner-gap" d="M544 832v-128c0-8.487-3.371-16.626-9.374-22.627-5.999-6.001-14.14-9.373-22.626-9.373s-16.627 3.372-22.626 9.373c-6.003 6.001-9.374 14.141-9.374 22.627v128c0 8.487 3.371 16.626 9.374 22.627 5.999 6.001 14.14 9.373 22.626 9.373s16.627-3.372 22.626-9.373c6.003-6.001 9.374-14.141 9.374-22.627zM896 480h-128c-8.486 0-16.627-3.371-22.626-9.374-6.003-5.999-9.374-14.14-9.374-22.626s3.371-16.627 9.374-22.626c5.999-6.003 14.14-9.374 22.626-9.374h128c8.486 0 16.627 3.371 22.626 9.374 6.003 5.999 9.374 14.14 9.374 22.626s-3.371 16.627-9.374 22.626c-5.999 6.003-14.14 9.374-22.626 9.374zM715.639 289.6c-6.050 5.747-14.106 8.905-22.451 8.798-8.341-0.107-16.316-3.469-22.217-9.37s-9.263-13.875-9.37-22.217c-0.107-8.346 3.051-16.401 8.798-22.451l90.479-90.522c6.007-6.003 14.148-9.378 22.643-9.378 8.491 0 16.631 3.375 22.639 9.378 6.003 6.007 9.378 14.148 9.378 22.639 0 8.495-3.375 16.636-9.378 22.643l-90.522 90.479zM512 224c-8.486 0-16.627-3.371-22.626-9.374-6.003-5.999-9.374-14.14-9.374-22.626v-128c0-8.486 3.371-16.627 9.374-22.626 5.999-6.003 14.14-9.374 22.626-9.374s16.627 3.371 22.626 9.374c6.003 5.999 9.374 14.14 9.374 22.626v128c0 8.486-3.371 16.627-9.374 22.626-5.999 6.003-14.14 9.374-22.626 9.374zM308.36 289.6l-90.52-90.479c-6.004-6.007-9.378-14.148-9.378-22.643 0-8.491 3.373-16.631 9.378-22.639 6.005-6.003 14.149-9.378 22.64-9.378s16.635 3.375 22.64 9.378l90.48 90.522c5.748 6.050 8.905 14.106 8.798 22.451-0.107 8.341-3.469 16.316-9.37 22.217s-13.873 9.263-22.218 9.37c-8.344 0.107-16.401-3.051-22.45-8.798zM288 448c0 8.486-3.372 16.627-9.373 22.626-6.001 6.003-14.141 9.374-22.627 9.374h-128c-8.487 0-16.626-3.371-22.627-9.374-6.001-5.999-9.373-14.14-9.373-22.626s3.372-16.627 9.373-22.626c6.001-6.003 14.141-9.374 22.627-9.374h128c8.487 0 16.626 3.371 22.627 9.374 6.001 5.999 9.373 14.14 9.373 22.626zM263.12 742.16c-6.004 6.004-14.148 9.378-22.64 9.378s-16.635-3.373-22.64-9.378c-6.004-6.005-9.378-14.149-9.378-22.64s3.373-16.635 9.378-22.64l90.52-90.48c6.050-5.748 14.106-8.905 22.45-8.798s16.317 3.469 22.218 9.37c5.901 5.901 9.263 13.873 9.37 22.218s-3.050 16.401-8.798 22.45l-90.48 90.52z" />
<glyph unicode="&#xe92b;" glyph-name="support" d="M793.485 757.867c-36.454 36.824-79.817 66.095-127.603 86.137s-99.055 30.462-150.874 30.663h-3.008c-105.076 0-205.848-41.741-280.148-116.041s-116.042-175.073-116.042-280.148v-213.333c0-24.247 9.633-47.505 26.779-64.649 17.146-17.148 40.401-26.782 64.65-26.782h60.952c24.248 0 47.504 9.634 64.65 26.782 17.146 17.143 26.779 40.401 26.779 64.649v152.38c0 24.247-9.632 47.505-26.779 64.649-17.146 17.148-40.401 26.782-64.65 26.782h-90.057c5.877 63.544 29.746 124.098 68.809 174.563s91.7 88.749 151.744 110.367c60.045 21.618 125.005 25.673 187.273 11.69 62.263-13.983 119.253-45.425 164.288-90.64 55.044-55.326 88.9-128.231 95.659-205.98h-90.095c-24.247 0-47.505-9.634-64.649-26.782-17.148-17.143-26.782-40.401-26.782-64.649v-152.38c0-24.247 9.634-47.505 26.782-64.649 17.143-17.148 40.401-26.782 64.649-26.782h91.43c0-24.247-9.634-47.501-26.782-64.649-17.143-17.148-40.401-26.778-64.649-26.778h-213.333c-8.081 0-15.834-3.213-21.551-8.926-5.713-5.717-8.926-13.47-8.926-21.551 0-8.085 3.213-15.834 8.926-21.551 5.717-5.713 13.47-8.926 21.551-8.926h213.333c40.414 0 79.172 16.055 107.75 44.629 28.574 28.578 44.629 67.337 44.629 107.75v304.764c0.201 51.827-9.83 103.181-29.513 151.124s-48.636 91.531-85.193 128.266zM268.191 448c8.083 0 15.834-3.213 21.55-8.926 5.715-5.717 8.926-13.466 8.926-21.551v-152.38c0-8.085-3.211-15.834-8.926-21.551-5.716-5.713-13.467-8.926-21.55-8.926h-60.952c-8.083 0-15.834 3.213-21.55 8.926-5.716 5.717-8.926 13.466-8.926 21.551v182.857h91.428zM755.81 234.667c-8.081 0-15.834 3.213-21.551 8.926-5.713 5.717-8.926 13.466-8.926 21.551v152.38c0 8.085 3.213 15.834 8.926 21.551 5.717 5.713 13.47 8.926 21.551 8.926h91.43v-213.333h-91.43z" />
<glyph unicode="&#xe92c;" glyph-name="user" d="M923.678 112c-60.919 105.323-154.799 180.843-264.358 216.64 54.195 32.26 96.299 81.421 119.851 139.93 23.548 58.505 27.243 123.127 10.513 183.937s-52.962 114.447-103.125 152.673c-50.163 38.227-111.488 58.929-174.558 58.929s-124.395-20.703-174.559-58.929c-50.164-38.227-86.393-91.863-103.124-152.673s-13.036-125.432 10.514-183.937c23.55-58.509 65.655-107.669 119.849-139.93-109.56-35.759-203.44-111.279-264.36-216.64-2.234-3.644-3.716-7.697-4.358-11.921s-0.432-8.533 0.619-12.676c1.051-4.143 2.921-8.030 5.499-11.439s5.813-6.263 9.513-8.401c3.7-2.138 7.791-3.511 12.031-4.045 4.24-0.529 8.544-0.205 12.657 0.951 4.113 1.161 7.952 3.132 11.29 5.798s6.109 5.978 8.148 9.732c75.36 130.24 208.56 208 356.28 208s280.922-77.76 356.279-208c2.039-3.755 4.809-7.066 8.149-9.732 3.337-2.667 7.177-4.638 11.29-5.798 4.113-1.156 8.418-1.481 12.655-0.951 4.241 0.533 8.333 1.907 12.032 4.045 3.703 2.138 6.938 4.992 9.515 8.401s4.45 7.296 5.5 11.439c1.050 4.143 1.259 8.452 0.619 12.676-0.644 4.224-2.125 8.277-4.361 11.921zM288 576c0 44.303 13.137 87.611 37.751 124.448s59.597 65.547 100.528 82.501c40.93 16.954 85.969 21.39 129.42 12.747s83.366-29.977 114.692-61.304c31.326-31.327 52.659-71.24 61.303-114.691s4.207-88.492-12.745-129.423c-16.956-40.93-45.666-75.913-82.505-100.527-36.834-24.614-80.145-37.751-124.446-37.751-59.388 0.064-116.328 23.684-158.322 65.677-41.994 41.997-65.615 98.935-65.679 158.324z" />
<glyph unicode="&#xe92d;" glyph-name="vip" d="M300.16 591.317l170.496 195.413c10.411 11.947 25.515 18.816 41.344 18.816s30.933-6.869 41.344-18.816l170.496-195.413 162.688 102.741c18.219 11.478 41.472 11.264 59.477-0.597s27.392-33.195 23.979-54.485l-77.312-483.072c-6.016-37.717-38.571-65.451-76.715-65.451h-607.915c-38.144 0-70.699 27.733-76.715 65.451l-77.312 483.072c-3.413 21.291 5.973 42.624 23.979 54.485s41.259 12.075 59.477 0.597l162.688-102.741zM120.405 629.12l74.112-463.104c1.067-6.656 6.784-11.563 13.525-11.563h607.915c6.741 0 12.459 4.907 13.525 11.563l74.112 463.104-152.192-96.085c-22.869-14.464-52.864-10.069-70.656 10.283l-168.747 193.451-168.747-193.451c-17.792-20.352-47.787-24.747-70.656-10.283l-152.192 96.085zM854.912 314.496c17.664 0 32-14.336 32-32s-14.336-32-32-32h-685.825c-17.664 0-32 14.336-32 32s14.336 32 32 32h685.825z" />
<glyph unicode="&#xe92e;" glyph-name="wallet" d="M864 704h-640c-8.487 0-16.626 3.372-22.627 9.373s-9.373 14.141-9.373 22.627c0 8.487 3.372 16.626 9.373 22.627s14.141 9.373 22.627 9.373h544c8.486 0 16.627 3.372 22.626 9.373 6.003 6.001 9.374 14.141 9.374 22.627s-3.371 16.626-9.374 22.627c-5.999 6.001-14.14 9.373-22.626 9.373h-544c-25.461 0-49.879-10.114-67.882-28.118s-28.118-42.421-28.118-67.882v-512c0-25.459 10.114-49.877 28.118-67.883 18.004-18.001 42.421-28.117 67.882-28.117h640c16.973 0 33.254 6.741 45.257 18.743s18.743 28.284 18.743 45.257v448c0 16.974-6.741 33.253-18.743 45.255s-28.284 18.745-45.257 18.745zM864 192h-640c-8.487 0-16.626 3.371-22.627 9.374-6.001 5.999-9.373 14.14-9.373 22.626v421.48c10.275-3.642 21.099-5.496 32-5.48h640v-448zM672 432c0 9.493 2.816 18.773 8.090 26.667s12.77 14.046 21.542 17.681c8.768 3.631 18.419 4.582 27.733 2.731 9.31-1.852 17.865-6.426 24.576-13.137s11.285-15.266 13.137-24.576c1.852-9.314 0.9-18.965-2.731-27.733-3.635-8.772-9.788-16.269-17.681-21.542s-17.173-8.090-26.667-8.090c-12.732 0-24.939 5.056-33.941 14.059s-14.059 21.21-14.059 33.941z" />
<glyph unicode="&#xe92f;" glyph-name="x" d="M822.639 182.639c2.974-2.97 5.333-6.502 6.942-10.385 1.609-3.887 2.436-8.047 2.436-12.254 0-4.203-0.828-8.367-2.436-12.254-1.609-3.883-3.968-7.411-6.942-10.385s-6.502-5.333-10.385-6.942c-3.887-1.609-8.047-2.436-12.254-2.436-4.203 0-8.367 0.828-12.254 2.436-3.883 1.609-7.411 3.968-10.385 6.942l-265.361 265.399-265.36-265.399c-6.004-6.003-14.148-9.378-22.64-9.378s-16.636 3.375-22.64 9.378c-6.004 6.003-9.378 14.148-9.378 22.639s3.373 16.636 9.378 22.639l265.4 265.361-265.4 265.361c-6.004 6.004-9.378 14.148-9.378 22.64s3.373 16.635 9.378 22.64c6.004 6.004 14.148 9.378 22.64 9.378s16.635-3.373 22.64-9.378l265.36-265.401 265.361 265.401c6.003 6.004 14.148 9.378 22.639 9.378s16.636-3.373 22.639-9.378c6.007-6.005 9.378-14.149 9.378-22.64s-3.371-16.635-9.378-22.64l-265.399-265.361 265.399-265.361z" />
<glyph unicode="&#xe930;" glyph-name="x-circle-fill" d="M512 864c-82.278 0-162.706-24.398-231.117-70.109s-121.731-110.681-153.216-186.695c-31.486-76.013-39.724-159.657-23.673-240.352s55.671-154.82 113.85-213.001c58.179-58.18 132.303-97.801 213-113.852 80.695-16.051 164.339-7.812 240.354 23.676 76.011 31.484 140.983 84.804 186.692 153.216 45.713 68.412 70.11 148.838 70.11 231.117-0.115 110.294-43.981 216.038-121.971 294.028s-183.735 121.856-294.029 121.972zM662.639 342.639c2.974-2.974 5.333-6.502 6.942-10.385 1.609-3.887 2.436-8.051 2.436-12.254s-0.828-8.367-2.436-12.254c-1.609-3.883-3.968-7.411-6.942-10.385s-6.502-5.333-10.385-6.942c-3.887-1.609-8.047-2.436-12.254-2.436-4.203 0-8.367 0.828-12.254 2.436-3.883 1.609-7.411 3.968-10.385 6.942l-105.361 105.399-105.36-105.399c-2.973-2.974-6.503-5.333-10.387-6.942s-8.048-2.436-12.253-2.436c-4.204 0-8.368 0.828-12.253 2.436s-7.414 3.968-10.387 6.942c-2.973 2.974-5.332 6.502-6.941 10.385-1.609 3.887-2.437 8.051-2.437 12.254s0.828 8.367 2.437 12.254c1.609 3.883 3.968 7.411 6.941 10.385l105.4 105.361-105.4 105.36c-6.004 6.005-9.378 14.149-9.378 22.64s3.373 16.635 9.378 22.64c6.004 6.004 14.148 9.378 22.64 9.378s16.636-3.373 22.64-9.378l105.36-105.401 105.361 105.401c2.974 2.973 6.502 5.331 10.385 6.941 3.887 1.609 8.051 2.437 12.254 2.437 4.207 0 8.367-0.828 12.254-2.437 3.883-1.609 7.411-3.968 10.385-6.941s5.333-6.503 6.942-10.388c1.609-3.884 2.436-8.048 2.436-12.253s-0.828-8.368-2.436-12.253c-1.609-3.885-3.968-7.414-6.942-10.388l-105.399-105.36 105.399-105.361z" />
<glyph unicode="&#xe931;" glyph-name="all" d="M384 864h-192c-53.019 0-96-42.981-96-96v-192c0-53.018 42.981-96 96-96h192c53.018 0 96 42.982 96 96v192c0 53.019-42.982 96-96 96zM832 864h-192c-53.018 0-96-42.981-96-96v-192c0-53.018 42.982-96 96-96h192c53.018 0 96 42.982 96 96v192c0 53.019-42.982 96-96 96zM384 416h-192c-53.019 0-96-42.982-96-96v-192c0-53.018 42.981-96 96-96h192c53.018 0 96 42.982 96 96v192c0 53.018-42.982 96-96 96zM736 32c106.039 0 192 85.961 192 192s-85.961 192-192 192c-106.039 0-192-85.961-192-192s85.961-192 192-192z" />
<glyph unicode="&#xe932;" glyph-name="ebet" d="M900.518 394.654c0 0 176.99 440.555-229.794 477.701-406.781 37.146-620.186-382.234-580.855-618.112 30.591-185.361 137.293-232.909 305.177-232.909 211.222 0 418.070 156.386 475.247 258.539h-218.871c0 0-110.345-82.466-222.874-82.466-77.203 0-168.611 49.775-148.945 197.619l620.915-0.371zM586.965 705.939c165.7 12.63 171.524-159.357 171.524-159.357h-424.989c0 0 87.766 146.356 253.465 159.357z" />
<glyph unicode="&#xe933;" glyph-name="evolution" d="M730.189 714.911c1.148-1.707 2.295-3.413 3.546-5.12v-0.61c4.058-24.381 6.865-49.371 6.865-74.971 0-6.923-0.166-13.804-0.499-20.643 0.35 7.057 0.529 14.157 0.529 21.295 0 25.6-2.496 50.59-6.865 74.971 23.718-33.829 42.133-70.095 54.929-109.41 10.3-32 17.165-64.305 20.284-97.524 0.311-4.267 0.939-8.836 1.562-13.103v-3.051c-1.647-0.158-3.268-0.341-4.881-0.521-4.51-0.503-8.934-1.003-13.534-1.003l0.316 0.307c-7.65-0.265-15.27-0.58-22.878-0.892-18.722-0.772-37.376-1.54-56.188-1.549-0.077-0.218-0.158-0.435-0.239-0.653h-9.673c-24.034 0-47.753 0.917-71.471 2.743-47.437 3.657-94.251 11.584-139.814 26.21-42.133 13.41-81.145 32.61-116.099 59.734-26.528 20.724-49.31 44.8-68.972 71.924-19.974 27.429-36.515 56.99-50.871 87.771-11.001 23.314-21.476 46.629-31.95 69.943-3.491 7.771-6.983 15.543-10.494 23.314-0.098 0.191-0.196 0.323-0.284 0.441-0.193 0.259-0.34 0.456-0.34 1.083 8.739 4.267 17.789 8.533 26.84 12.495 30.897 13.714 63.042 23.467 96.748 29.867 18.726 3.352 37.763 5.486 56.8 6.095 0.937 0 3.433 0.61 3.433 0.61h26.528c0.937-0.305 1.873-0.61 3.121-0.61 22.784-0.609 45.253-3.657 67.725-8.228 36.203-7.619 70.532-19.81 103.3-36.876 50.249-26.514 92.689-61.867 127.019-106.362 2.061-2.56 3.785-5.12 5.508-7.68zM679.59 412.062c23.987 0.606 47.97 0.602 71.642-0.004v0.61c11.234-0.367 22.468-1.062 33.707-1.758 7.488-0.461 14.98-0.926 22.468-1.293h3.123v-3.959c-0.627-4.57-1.25-9.143-1.562-13.713-2.496-26.517-7.492-52.117-14.669-77.717-14.357-52.416-38.076-100.57-71.782-143.846-31.829-40.533-70.532-73.446-116.096-98.743-33.707-18.893-69.909-32.61-107.985-40.836-29.022-6.4-58.671-9.451-88.32-9.451-45.253 0-89.57 7.317-132.638 21.641-21.534 7.010-42.444 15.846-62.73 26.21-0.312 0.303-0.624 0.61-1.248 0.913 1.092 2.436 2.185 4.954 3.277 7.467s2.185 5.030 3.277 7.467c3.355 7.313 6.691 14.63 10.026 21.943 10.007 21.943 20.013 43.887 30.546 65.826 1.361 3.038 2.963 5.956 4.582 8.905 0.98 1.788 1.967 3.584 2.908 5.423l0.301 0.273c8.738 17.067 18.413 33.83 29.024 50.287 16.229 24.99 35.267 47.846 57.425 68.267 29.337 27.123 63.043 47.846 99.867 63.697 33.084 14.016 67.413 24.073 102.677 30.17 21.222 3.657 42.761 6.703 63.979 8.836v0.307c18.415 1.826 37.141 2.743 55.868 3.354h2.496l-0.162-0.273z" />
<glyph unicode="&#xe934;" glyph-name="hogaming" d="M425.533 598.187c30.936 28.061 62.1 56.332 86.479 89.147 24.375-32.815 55.543-61.086 86.477-89.147 63.927-57.99 126.865-115.085 126.865-209.527 0-66.039-49.562-119.573-110.694-119.573-45.286 0-84.087 29.444-101.231 71.514 12.971-116.156 97.754-131.819 97.754-131.819h-198.345c0 0 84.784 15.663 97.754 131.819-17.143-42.069-55.945-71.514-101.228-71.514-61.136 0-110.697 53.534-110.697 119.573 0 94.443 62.939 151.537 126.867 209.527zM938.667 448c0 235.642-191.027 426.667-426.667 426.667-235.642 0-426.667-191.025-426.667-426.667 0-235.639 191.025-426.667 426.667-426.667 235.639 0 426.667 191.027 426.667 426.667zM874.667 448c0-200.294-162.372-362.667-362.667-362.667s-362.667 162.372-362.667 362.667c0 200.295 162.371 362.667 362.667 362.667s362.667-162.371 362.667-362.667z" />
<glyph unicode="&#xe935;" glyph-name="micro" d="M704.606 463.744c27.806-42.923 56.32-87.851 85.884-132.070 6.925-10.231 16.896-18.697 26.517-26.697 3.051-2.586 10.679-2.94 13.965-0.823 2.462 1.532 3.635 10.351 1.523 13.175-56.201 78.323-69.926 169.822-82.598 261.787-3.405 24.462-13.73 36.105-32.619 38.692-21.239 2.94-34.027-6.586-45.525-29.754-43.413-87.498-86.588-175.114-132.113-261.552-12.437-23.642-31.561-43.985-49.395-64.213-13.141-15.053-20.535-14.114-26.517 4.467-9.856 31.283-19.008 63.275-23.467 95.616-13.61 97.493-8.563 195.693-4.339 293.54 1.173 28.343 5.867 56.568 7.275 85.029 1.289 25.873-10.914 43.984-29.452 47.983-22.058 4.704-38.015-3.763-50.335-28.695-72.627-147.359-161.094-285.19-252.612-421.263-1.76-2.586-3.872-4.937-9.269-11.759-5.397 27.166-12.202 49.745-14.197 72.798-9.739 113.489 15.018 218.157 86.355 308.948 71.22 90.673 163.206 147.477 278.307 161.707 168.367 20.698 306.82-36.222 406.195-173.938 173.884-241.088 52.8-581.44-233.839-658.825-143.962-38.925-275.842-8.465-390.121 88.674-25.93 21.995-46.345 50.338-69.694 75.388-8.8 9.523-7.627 17.050-1.173 27.87 51.625 85.38 102.546 170.999 153.468 256.849 10.795 18.112 20.298 36.928 30.388 55.511l6.336-0.235c0-27.048-0.352-54.098 0-81.149 1.173-68.796 5.515-137.361 27.924-203.221 5.632-16.7 13.728-33.165 23.818-47.509 29.332-42.223 84.829-50.453 125.541-19.055 38.485 29.756 63.829 70.447 87.296 111.962 30.857 54.566 59.605 110.43 86.588 160.883l-0.115-0.119z" />
<glyph unicode="&#xe936;" glyph-name="techplay" d="M128 485.205l169.709 95.85 202.775-354.295-267.341-153.327c-46.73-26.803-105.143 6.699-105.143 60.301v351.471zM128 525.252v279.679c0 53.603 58.413 87.104 105.143 60.303l246.499-141.374-351.642-198.607zM514.825 703.681l-186.648-105.418 202.661-354.091 287.45 164.86c46.729 26.799 46.729 93.803 0 120.602l-303.462 174.047z" />
<glyph unicode="&#xe937;" glyph-name="vivo" d="M938.611 446.699c-1.937-232.934-186.462-423.283-424.444-425.348-235.012-2.065-429.35 189.961-428.833 424.96 0.517 233.967 188.914 425.218 418.243 428.316 238.242 3.226 435.806-185.574 435.034-427.927zM499.319 286.933h0.384c0 50.458-0.384 101.047 0.26 151.505 0.128 11.614-3.746 18.581-13.687 24.26-88.195 50.458-176.389 101.047-264.196 152.021-14.85 8.646-17.949 4.259-17.819-11.098 0.516-101.047 0.646-201.962 0.387-303.009 0-10.97 4.649-16.132 12.783-22.583 21.693-17.293 47.777-26.581 71.279-40.521 64.435-38.327 130.161-74.59 194.852-112.661 16.141-9.549 16.013-1.677 15.885 10.453-0.128 50.458 0 101.047 0 151.505l-0.128 0.128zM805.222 646.854c-5.167 3.613-7.492 5.936-10.462 7.098-90.001 37.682-180.002 75.236-270.135 112.918-9.165 3.872-17.69 3.485-27.115-0.516-71.795-30.585-143.978-60.266-215.644-90.98-19.369-8.259-40.029-14.066-57.978-26.068 1.808-2.323 2.324-3.742 3.229-4.387 91.293-53.169 182.586-106.208 273.751-159.503 9.553-5.551 17.562-3.358 26.342 1.677 53.585 30.972 107.302 61.684 160.892 92.527 38.353 21.938 76.574 44.006 116.86 67.235h0.26zM526.562 288.226h0.388c0-50.462 0.26-101.047-0.128-151.505 0-14.195 1.293-20.134 17.301-10.714 85.871 50.33 172.13 100.015 258.645 149.312 12.655 7.228 17.946 15.488 17.818 30.327-0.516 96.917 0 193.963-0.128 290.877 0 7.614 4.262 17.809-4.262 22.068-6.716 3.355-13.427-4.517-19.627-8.001-84.706-48.393-169.156-97.434-253.867-145.699-12.134-6.967-16.657-15.356-16.397-29.163 0.644-49.169 0.256-98.338 0.256-147.503zM378.206 355.085c-0.904-11.102-1.937-20.779-11.105-26.33-9.168-5.547-17.562-0.256-24.276 4.774-21.177 15.876-33.186 37.427-31.378 64.009 1.42 20.39 15.624 26.33 32.669 15.232 21.177-13.939 30.604-34.846 34.090-57.685zM449.788 391.569c-0.516-6.839-2.197-16.132-10.978-20.002-8.393-3.742-16.526-1.549-24.274 4.514-18.465 14.583-28.925 33.297-31.507 56.269-1.162 10.065 0 20.518 10.847 26.065 10.072 5.035 17.82 0.26 25.567-5.807 17.302-13.679 30.734-39.1 30.345-61.039zM306.118 310.234c-0.904-10.321-0.387-19.486-9.814-24.388-9.814-5.035-18.853-1.161-26.342 4.518-20.015 14.967-29.829 36.002-30.991 60.523-0.387 7.484 0 16.777 8.78 21.163 9.297 4.646 18.336 2.581 26.471-3.354 20.273-14.839 29.699-35.49 31.895-58.33v-0.132zM508.066 619.994c-14.852-0.646-30.605 2.065-44.809 10.969-16.269 10.195-17.045 27.229-0.26 36.65 31.509 17.68 64.435 17.938 96.461 1.291 18.206-9.55 18.334-26.971 0.644-37.94-15.236-9.55-32.542-12.518-52.169-11.098l0.132 0.129zM707.998 390.827c-0.516-22.195-8.393-40.909-26.21-54.455-17.95-13.683-34.351-6.839-37.060 15.356-3.102 25.037 6.844 44.779 26.21 59.75 7.36 5.679 16.657 9.805 26.214 3.998 9.041-5.547 10.718-14.839 10.718-24.516l0.128-0.132zM775.71 331.106c0-22.455-9.813-40.393-27.763-53.167-16.013-11.358-32.542-3.614-36.028 15.612-3.742 21.039 13.948 55.881 33.186 65.041 18.594 8.777 30.605-2.065 30.733-27.486h-0.128zM572.318 416.422c2.193 17.421 9.681 34.842 25.822 47.748 7.232 5.807 15.497 8.777 24.538 5.419 10.202-3.742 14.076-13.163 14.332-22.583 0.777-23.616-9.037-43.23-27.635-57.685-7.744-6.063-17.818-8.128-26.598-2.581-9.557 5.939-10.074 16.777-10.458 29.683zM571.686 230.362c1.549 20.134 9.297 40.265 29.568 53.299 16.917 10.842 29.7 4.902 33.702-14.711 4.134-20.518-7.748-51.234-24.794-61.943-8.521-5.291-18.078-10.453-28.147-4.39-9.041 5.423-10.074 15.1-10.202 27.746h-0.128zM713.941 487.377c0.777 20.907 9.946 38.46 27.119 50.976 17.045 12.518 33.83 4.387 35.379-16.259 1.549-20.651-4.39-38.46-19.499-53.043-8.649-8.388-18.978-14.195-30.989-10.065-13.171 4.518-10.718 17.037-11.878 28.39h-0.132z" />
<glyph unicode="&#xe938;" glyph-name="search" d="M918.639 86.63l-200.282 200.239c58.052 69.692 86.997 159.083 80.819 249.572s-47.006 175.115-113.988 236.271c-66.982 61.155-154.965 94.132-245.641 92.072-90.678-2.061-177.071-39.001-241.206-103.136s-101.076-150.528-103.136-241.204c-2.061-90.679 30.917-178.658 92.072-245.641 61.155-66.987 145.78-107.81 236.271-113.988s179.878 22.767 249.57 80.815l200.239-200.277c2.974-2.974 6.507-5.333 10.389-6.942s8.047-2.436 12.254-2.436c4.203 0 8.367 0.828 12.25 2.436 3.887 1.609 7.415 3.968 10.389 6.942 2.974 2.97 5.333 6.502 6.942 10.385 1.609 3.887 2.436 8.047 2.436 12.254 0 4.203-0.828 8.367-2.436 12.254-1.609 3.883-3.968 7.411-6.942 10.385zM159.999 511.991c0 56.96 16.891 112.642 48.537 160.004s76.625 84.275 129.251 106.073c52.625 21.798 110.534 27.502 166.397 16.389 55.868-11.113 107.183-38.542 147.46-78.819s67.708-91.594 78.822-147.461c11.11-55.866 5.41-113.773-16.388-166.398s-58.714-97.604-106.074-129.25c-47.364-31.646-103.044-48.538-160.004-48.538-76.358 0.085-149.562 30.455-203.555 84.446s-84.362 127.198-84.447 203.554z" />
<glyph unicode="&#xe939;" glyph-name="caret-double-right" d="M566.658 425.363l-320-320.002c-6.004-5.999-14.148-9.378-22.64-9.378s-16.636 3.379-22.64 9.378c-6.005 6.007-9.378 14.15-9.378 22.642s3.373 16.635 9.378 22.64l297.399 297.36-297.399 297.359c-6.005 6.005-9.378 14.148-9.378 22.641s3.373 16.635 9.378 22.64c6.004 6.004 14.148 9.377 22.64 9.377s16.636-3.373 22.64-9.377l320-320c2.976-2.972 5.336-6.502 6.946-10.386s2.439-8.049 2.439-12.254c0-4.206-0.829-8.369-2.439-12.255s-3.971-7.414-6.946-10.386zM886.656 470.643l-319.998 320c-6.004 6.004-14.148 9.377-22.64 9.377s-16.636-3.373-22.64-9.377c-6.005-6.005-9.378-14.148-9.378-22.64s3.373-16.636 9.378-22.641l297.399-297.359-297.399-297.36c-6.005-6.005-9.378-14.148-9.378-22.64s3.373-16.636 9.378-22.642c6.004-5.999 14.148-9.378 22.64-9.378s16.636 3.379 22.64 9.378l319.998 320.002c2.978 2.972 5.333 6.502 6.946 10.386s2.441 8.049 2.441 12.255c0 4.205-0.828 8.369-2.441 12.254s-3.968 7.414-6.946 10.386z" />
<glyph unicode="&#xe93a;" glyph-name="empty" d="M854.64 694.64l-160 160c-2.974 2.971-6.504 5.326-10.389 6.932s-8.048 2.431-12.251 2.428h-320c-16.974 0-33.253-6.743-45.254-18.745-12.003-12.002-18.746-28.281-18.746-45.255v-64h-64c-16.974 0-33.253-6.742-45.254-18.746-12.003-12.002-18.746-28.28-18.746-45.254v-576c0-16.974 6.742-33.253 18.746-45.254 12.002-12.003 28.28-18.746 45.254-18.746h448c16.974 0 33.253 6.742 45.254 18.746 12.003 12.002 18.746 28.28 18.746 45.254v64h64c16.974 0 33.253 6.742 45.254 18.746 12.003 12.002 18.746 28.28 18.746 45.254v448c0.003 4.203-0.821 8.366-2.427 12.251s-3.962 7.414-6.933 10.389zM544 192h-192c-8.486 0-16.626 3.371-22.627 9.373s-9.373 14.141-9.373 22.627c0 8.486 3.371 16.626 9.373 22.627s14.141 9.373 22.627 9.373h192c8.486 0 16.626-3.371 22.627-9.373s9.373-14.141 9.373-22.627c0-8.486-3.371-16.626-9.373-22.627s-14.141-9.373-22.627-9.373zM544 320h-192c-8.486 0-16.626 3.371-22.627 9.373s-9.373 14.141-9.373 22.627c0 8.486 3.371 16.626 9.373 22.627s14.141 9.373 22.627 9.373h192c8.486 0 16.626-3.371 22.627-9.373s9.373-14.141 9.373-22.627c0-8.486-3.371-16.626-9.373-22.627s-14.141-9.373-22.627-9.373zM800 224h-64v320c0.003 4.203-0.821 8.366-2.427 12.251s-3.962 7.414-6.933 10.389l-160 160c-2.974 2.971-6.504 5.326-10.389 6.933-3.885 1.605-8.048 2.43-12.251 2.427h-192v64h306.76l141.24-141.24v-434.76z" />
<glyph unicode="&#xe93b;" glyph-name="facebook" d="M446.805 412.847c-2.048 0-47.104 0-67.584 0-10.923 0-14.336 4.096-14.336 14.336 0 27.307 0 55.296 0 82.603 0 10.923 4.096 14.336 14.336 14.336h67.584c0 2.048 0 41.642 0 60.074 0 27.307 4.779 53.248 18.432 77.141 14.336 24.576 34.816 40.96 60.757 50.517 17.067 6.144 34.133 8.875 52.565 8.875h66.901c9.557 0 13.653-4.096 13.653-13.653v-77.824c0-9.557-4.096-13.653-13.653-13.653-18.432 0-36.864 0-55.296-0.683-18.432 0-27.989-8.875-27.989-27.989-0.683-20.48 0-40.277 0-61.44h79.189c10.923 0 15.019-4.096 15.019-15.019v-82.603c0-10.923-3.413-14.336-15.019-14.336-24.576 0-77.141 0-79.189 0v-222.549c0-11.605-3.413-15.701-15.701-15.701-28.672 0-56.661 0-85.333 0-10.24 0-14.336 4.096-14.336 14.336 0 71.68 0 221.184 0 223.232z" />
<glyph unicode="&#xe93c;" glyph-name="messager" d="M810.667 470.101c0-152.755-133.747-276.565-298.667-276.565-28.954-0.017-57.779 3.87-85.69 11.567l-101.71-55.77v105.455c-67.825 50.667-111.267 128.047-111.267 215.313 0 152.754 133.748 276.565 298.667 276.565s298.667-123.865 298.667-276.565zM541.679 374.327l163.29 173.228-146.509-81.072-77.926 81.072-163.289-173.279 148.411 81.126 76.023-81.075z" />
<glyph unicode="&#xe93d;" glyph-name="telegram" d="M223.884 458.496l137.638-50.573 53.274-168.666c3.409-10.803 16.829-14.797 25.733-7.629l76.723 61.577c8.043 6.451 19.494 6.771 27.9 0.764l138.377-98.906c9.527-6.818 23.027-1.677 25.417 9.655l101.372 480.033c2.607 12.38-9.749 22.708-21.726 18.149l-564.868-214.526c-13.94-5.291-13.818-24.721 0.161-29.879zM406.21 434.846l268.994 163.101c4.834 2.923 9.809-3.513 5.658-7.304l-221.999-203.153c-7.804-7.151-12.838-16.721-14.263-27.106l-7.561-55.172c-1.003-7.369-11.513-8.098-13.578-0.969l-29.084 100.608c-3.331 11.473 1.523 23.731 11.833 29.995z" />
<glyph unicode="&#xe93e;" glyph-name="global" d="M85.852 424.905c2.025-31.151 5.432-55.782 14.019-87.561 2.329-8.619 9.881-14.4 18.813-14.4h119.715c11.621 0 20.582 9.937 19.382 21.491-7.068 68.083-7.826 138.893-2.196 207.568 0.934 11.412-7.967 21.072-19.421 21.072h-117.479c-8.93 0-16.483-5.783-18.813-14.403-5.793-21.452-9.975-43.562-12.301-66.184-2.092-20.301-2.326-33.485-2.216-53.53l0.497-14.054zM268.396 651.476c7.876 44.132 18.445 86.377 31.471 125.824 5.823 17.636-14.282 32.69-29.571 22.142-50.999-35.18-94.021-81.163-125.689-134.614-7.717-13.024 1.626-29.412 16.767-29.412h87.838c9.527 0 17.51 6.684 19.183 16.061zM690.897 658.685c-14.443 72.875-36.783 139.279-65.911 194.224-2.705 5.104-7.010 8.451-12.629 9.812-65.788 15.934-134.946 15.921-200.69 0-5.617-1.361-9.923-4.706-12.631-9.812-29.124-54.947-51.464-121.35-65.908-194.224-2.4-12.108 6.769-23.27 19.115-23.27h319.541c12.348 0 21.517 11.162 19.115 23.27zM774.81 635.415h87.842c15.138 0 24.482 16.387 16.768 29.411-31.671 53.46-74.697 99.456-125.7 134.628-15.287 10.545-35.392-4.509-29.568-22.144 13.026-39.45 23.595-81.699 31.475-125.836 1.673-9.375 9.66-16.059 19.183-16.059zM785.626 322.944h119.718c8.93 0 16.482 5.777 18.812 14.4 5.794 21.44 9.975 43.554 12.297 66.185 2.27 22.178 2.214 32.333 2.214 54.383 0 8.836-1.429 26.965-2.214 34.577-2.325 22.622-6.507 44.732-12.301 66.184-2.33 8.62-9.882 14.403-18.812 14.403h-117.478c-11.452 0-20.356-9.66-19.422-21.072 5.632-68.68 4.873-139.481-2.193-207.568-1.203-11.558 7.761-21.491 19.379-21.491zM751.1 245.039c-9.323-45.402-22.037-90.825-38.217-133.188-6.69-17.519 12.924-33.472 28.719-23.351 56.329 36.087 103.637 85.047 137.805 142.69 7.718 13.026-1.626 29.414-16.768 29.414h-92.45c-9.353 0-17.207-6.409-19.089-15.565zM311.136 111.863c-16.179 42.364-28.89 87.774-38.211 133.175-1.88 9.156-9.738 15.565-19.087 15.565h-92.452c-15.142 0-24.483-16.393-16.765-29.414 34.162-57.638 81.473-106.586 137.797-142.682 15.793-10.116 35.41 5.833 28.718 23.356zM666.342 260.604h-308.66c-12.577 0-21.8-11.571-18.996-23.825 17.527-76.604 43.916-144.96 77.519-198.537 2.958-4.715 7.259-7.676 12.722-8.759 54.848-10.863 111.27-10.871 166.17 0 5.461 1.084 9.762 4.045 12.719 8.759 33.604 53.577 59.994 121.92 77.521 198.537 2.807 12.254-6.417 23.825-18.995 23.825zM314.22 460.501c0-40.879 2.407-81.203 6.919-120.311 1.14-9.877 9.41-17.246 19.357-17.246h343.032c9.95 0 18.219 7.369 19.358 17.246 8.196 71.014 9.139 143.599 2.675 215.155-0.909 10.073-9.289 17.729-19.405 17.729h-348.288c-10.118 0-18.497-7.656-19.408-17.729-2.804-31.065-4.241-62.788-4.241-94.843z" />
<glyph unicode="&#xe93f;" glyph-name="plus" d="M938.667 960h-853.333c-22.632 0-44.337-8.99-60.34-24.994s-24.994-37.708-24.994-60.34v-853.333c0-22.63 8.99-44.339 24.994-60.342s37.708-24.991 60.34-24.991h853.333c22.63 0 44.339 8.988 60.342 24.991s24.991 37.712 24.991 60.342v853.333c0 22.632-8.988 44.337-24.991 60.34s-37.712 24.994-60.342 24.994zM810.667 405.333h-256v-256c0-11.315-4.495-22.17-12.497-30.168-8.001-8.004-18.854-12.498-30.17-12.498s-22.168 4.494-30.17 12.498c-8.001 7.999-12.497 18.853-12.497 30.168v256h-256c-11.316 0-22.168 4.495-30.17 12.497s-12.497 18.854-12.497 30.17c0 11.316 4.495 22.168 12.497 30.17s18.854 12.497 30.17 12.497h256v256c0 11.316 4.495 22.168 12.497 30.17s18.854 12.497 30.17 12.497c11.316 0 22.168-4.495 30.17-12.497s12.497-18.854 12.497-30.17v-256h256c11.315 0 22.17-4.495 30.168-12.497 8.004-8.001 12.498-18.854 12.498-30.17s-4.494-22.168-12.498-30.17c-7.999-8.001-18.853-12.497-30.168-12.497z" />
<glyph unicode="&#xe940;" glyph-name="minus" d="M938.667 960h-853.333c-22.632 0-44.337-8.99-60.34-24.994s-24.994-37.708-24.994-60.34v-853.333c0-22.63 8.99-44.339 24.994-60.342s37.708-24.991 60.34-24.991h853.333c22.63 0 44.339 8.988 60.342 24.991s24.991 37.712 24.991 60.342v853.333c0 22.632-8.988 44.337-24.991 60.34s-37.712 24.994-60.342 24.994zM810.667 405.333h-597.333c-11.316 0-22.168 4.495-30.17 12.497s-12.497 18.854-12.497 30.17c0 11.316 4.495 22.168 12.497 30.17s18.854 12.497 30.17 12.497h597.333c11.315 0 22.17-4.495 30.168-12.497 8.004-8.001 12.498-18.854 12.498-30.17s-4.494-22.168-12.498-30.17c-7.999-8.001-18.853-12.497-30.168-12.497z" />
<glyph unicode="&#xe941;" glyph-name="plus18" horiz-adv-x="1056" d="M514.918-63.875c-272.787 0-494.614 221.827-494.614 494.464s221.827 494.614 494.614 494.614c47.213 0 93.827-6.595 138.79-19.785 15.29-4.496 23.981-20.384 19.485-35.672s-20.384-23.981-35.67-19.485c-39.718 11.541-80.938 17.386-122.605 17.386-241.012 0-437.059-196.047-437.059-437.059 0-241.011 196.047-437.059 437.059-437.059s437.059 196.048 437.059 437.059c0 36.573-4.496 72.845-13.341 107.917-3.898 15.437 5.395 31.024 20.835 34.922 15.286 3.898 31.024-5.395 34.922-20.832 10.042-39.718 15.139-80.787 15.139-122.006 0-272.787-221.827-494.614-494.614-494.614v0.15zM890.973 634.288c-15.888 0-28.778 12.891-28.778 28.778v268.141c0 15.888 12.89 28.777 28.778 28.777s28.778-12.89 28.778-28.777v-268.29c0-15.888-12.89-28.779-28.778-28.779v0.15zM1024.966 768.289h-268.291c-15.888 0-28.778 12.89-28.778 28.778s12.89 28.778 28.778 28.778h268.291c15.888 0 28.778-12.89 28.778-28.778s-12.89-28.778-28.778-28.778zM318.425 255.331v256.899c-47.813-36.72-80.038-55.005-96.525-55.005-7.944 0-14.988 3.146-20.984 9.443-6.145 6.294-9.143 13.638-9.143 21.882 0 9.594 2.998 16.637 8.993 21.133s16.637 10.342 31.925 17.536c22.782 10.794 40.918 22.035 54.707 33.875 13.639 11.84 25.78 25.181 36.272 39.869s17.386 23.68 20.685 27.13c3.146 3.446 9.293 5.094 18.134 5.094 10.042 0 17.987-3.898 23.981-11.539 5.997-7.645 8.995-18.288 8.995-31.926v-323.296c0-37.773-12.89-56.806-38.672-56.806-11.539 0-20.682 3.898-27.728 11.539-6.893 7.645-10.491 19.037-10.491 34.173h-0.15zM491.242 525.549c0 18.886 5.094 36.573 15.437 53.21 10.192 16.637 25.331 29.978 45.114 40.019 19.786 10.042 43.018 14.989 69.549 14.989 22.33 0 42.115-2.998 59.053-8.694 16.938-5.846 31.024-13.939 42.416-24.131 11.242-10.192 19.635-21.882 25.181-34.771 5.395-12.89 8.243-26.531 8.243-41.069 0-18.435-4.797-34.922-14.24-49.462-9.44-14.538-23.68-26.378-42.566-35.52 16.038-6.147 29.229-14.39 39.869-24.432 10.493-10.042 18.435-21.734 23.834-35.072 5.395-13.341 8.093-28.029 8.093-44.218 0-23.68-5.696-45.264-17.235-64.448-11.542-19.334-28.33-34.474-50.512-45.264-22.182-10.944-48.413-16.339-78.538-16.339-30.128 0-58.006 5.395-80.189 16.339-22.182 10.941-38.97 25.93-50.211 45.114-11.242 19.034-16.938 40.467-16.938 64.301 0 50.659 23.834 85.434 71.795 104.166-38.669 18.138-57.856 46.614-57.856 85.584l-0.298-0.301zM693.731 338.646c0 14.688-2.995 27.427-8.992 38.371-5.994 10.941-14.538 19.334-25.478 25.178-10.944 5.846-23.082 8.694-36.723 8.694-19.184 0-35.373-6.445-48.262-19.184-13.040-12.742-19.485-30.726-19.485-53.658 0-14.691 2.998-27.581 9.142-38.822 6.147-11.238 14.39-19.933 25.030-25.93 10.493-6.144 22.333-9.142 35.222-9.142 12.893 0 25.030 3.149 35.523 9.293 10.493 6.147 18.886 14.989 24.88 26.23 5.997 11.242 8.995 24.282 8.995 38.97h0.147zM623.139 579.808c-17.686 0-31.926-5.546-42.717-16.486-10.794-10.944-16.189-25.181-16.189-42.566 0-16.038 5.546-29.379 16.637-40.019 11.091-10.643 25.482-15.888 42.867-15.888 8.842 0 16.938 1.347 24.131 4.195s13.488 6.746 18.586 11.693c5.245 4.944 9.142 10.941 11.99 17.837 2.848 6.893 4.195 14.387 4.195 22.781 0 11.091-2.547 21.133-7.491 29.978-4.947 8.842-11.994 15.888-20.986 20.832-8.992 5.098-19.334 7.645-31.024 7.645z" />
<glyph unicode="&#xe942;" glyph-name="be" horiz-adv-x="1536" d="M168.046 444.147h103.712v-148.765h-34.004v46.39c-9.351-15.302-13.602-20.768-22.103-28.054-19.552-17.002-43.355-25.987-68.858-25.987-69.708 0-124.114 68.006-124.114 155.568 0 87.558 54.042 157.389 123.264 157.389 28.539 0 62.057-8.138 89.26-51.856v46.39h31.454v-95.21h-32.789c-4.251 16.637-9.351 27.203-17.002 36.554-17.002 20.886-39.954 32.79-63.757 32.79-37.040 0-90.11-31.456-90.11-124.115 0-71.894 38.74-125.45 90.596-125.45 37.89 0 73.594 31.088 82.095 71.043 1.336 5.952 1.7 11.901 2.186 24.288h-69.708v29.389l-0.122-0.365zM527.389 295.37h-64.608v40.442c-18.214-28.541-42.989-44.691-76.509-44.691-42.502 0-73.592 29.389-73.592 68.858 0 43.354 38.255 65.091 128.364 73.594 3.037 0.486 12.387 1.216 21.254 2.186v23.44c0 25.866-20.038 42.138-51.491 42.138-33.155 0-48.093-11.050-54.893-40.438h-34.49c5.101 22.954 11.901 34.854 25.504 46.755 15.299 12.752 36.554 19.552 61.206 19.552 46.755 0 86.707-21.738 86.707-79.059v-125.936h32.304v-26.838h0.243zM462.298 412.32l-20.89-2.55c-69.709-8.502-93.146-21.254-93.146-50.157 0-23.802 20.886-43.354 47.242-43.354 40.438 0 66.794 38.253 66.794 59.142v36.918zM621.994 481.197c10.202 15.667 30.605 47.242 72.259 47.242 30.24 0 47.606-15.789 53.19-47.606 8.989 15.302 13.238 20.89 21.741 28.054 14.934 13.235 31.088 19.552 48.941 19.552 34.854 0 55.254-22.589 55.254-62.058v-144.154h31.453v-26.838h-64.24v158.97c0 31.939-10.688 46.39-32.79 46.39-39.59 0-60.358-47.606-60.358-62.906v-115.616h32.79v-26.838h-65.456v164.192c0 28.538-10.688 41.29-32.79 41.29-35.341 0-60.355-43.84-60.355-64.608v-113.914h32.301v-26.838h-98.246v26.838h33.155v175.242h-33.155v27.203h66.307v-43.597zM938.835 608.33h63.757v-132.253c8.502 16.154 34.854 50.643 74.81 50.643 51.491 0 90.595-52.342 90.595-119.501 0-62.541-41.654-114.762-91.446-114.762-40.438 0-59.99 26.838-73.958 45.904v-42.989h-65.091v26.838h32.304v259.277h-31.091v26.842h0.122zM1002.592 391.917c0-37.888 30.605-71.408 65.459-71.408 39.104 0 64.243 35.341 64.243 90.112s-25.139 88.896-62.909 88.896c-33.152 0-66.794-37.040-66.794-69.344v-38.256zM1193.866 608.33h65.091v-286.24h30.605v-26.717h-96.061v26.717h32.666v259.398h-32.301v26.842zM1510.589 358.285c-4.736-15.789-9.837-25.139-18.339-34.854-18.336-21.251-43.354-32.79-71.891-32.79-62.058 0-105.414 48.458-105.414 118.163 0 69.709 43.357 118.65 99.949 118.65s100.797-44.205 100.797-124.112h-165.405c2.915-33.642 10.688-52.342 26.352-67.645 11.904-11.536 25.99-17.002 42.992-17.002 26.352 0 42.506 11.901 54.042 39.59h36.918zM1477.798 428.477c-2.55 28.541-8.986 44.205-22.102 56.957-10.202 9.35-22.95 14.086-37.888 14.086-27.69 0-50.643-18.701-60.845-48.941-1.699-5.462-3.885-14.086-4.736-22.102h125.571zM128.945 240.797h71.894l82.459-250.899h22.588v-48.941h-68.857l-19.552 65.091h-105.412l-19.552-65.091h-69.708v48.941h22.952l83.309 250.899h-0.122zM165.135 184.691l-39.955-132.736h79.059l-39.105 132.736zM304.188 168.547h90.961v-44.205h-22.954l31.453-133.952 37.405 178.157h58.656l37.891-176.093 30.237 131.888h-22.102v44.205h91.325v-44.205h-19.552l-48.819-183.258h-60.477l-37.77 158.118-35.702-158.118h-61.21l-50.275 183.258h-19.067v44.205zM852.25-14.701h19.552v-44.205h-70.557v26.838c-23.44-23.44-40.806-31.456-68.858-31.456-45.542 0-80.394 30.605-80.394 71.046 0 66.79 75.293 73.958 148.035 80.758-0.483 34.854-8.986 43.84-42.138 43.84-23.44 0-39.59-13.238-40.806-34.49l-55.254 1.699c2.912 45.542 39.59 74.81 93.51 74.81 62.906 0 96.909-28.538 96.909-80.394v-108.448zM799.059 48.691c-53.555-5.101-88.41-9.837-88.41-41.29 0-18.704 14.938-31.091 37.405-31.091 28.902 0 51.005 21.738 51.005 50.157v22.224zM989.238 133.197c14.938 28.902 31.453 40.803 56.957 40.803 7.651 0 14.451-0.851 25.504-3.037v-53.19c-10.202 2.064-18.339 3.037-27.69 3.037-29.754 0-54.893-21.254-54.893-47.242v-88.41h27.203v-44.205h-105.046v44.205h22.102v139.050h-21.738v44.205h77.357v-35.338l0.243 0.122zM1300.493 15.875c-10.198-49.306-51.491-79.91-106.746-79.91-63.757 0-110.512 49.792-110.512 119.501 0 69.706 47.238 119.862 110.998 119.862 36.189 0 68.006-17.002 87.558-46.39 20.89-31.939 21.738-62.058 22.589-85.011h-164.189c5.584-59.142 44.205-62.054 54.89-62.054 22.589 0 37.405 10.685 46.39 34.003h59.021zM1242.202 83.034c-3.763 28.902-21.251 44.688-48.090 44.688-24.653 0-43.843-16.637-51.008-44.688h99.098zM23.53 960h114.399c51.006 0 70.194-1.7 84.645-8.137 20.038-8.501 45.905-32.789 45.905-72.258 0-30.239-9.837-45.055-38.74-60.843 34.004-14.087 49.791-35.34 49.791-74.808 0-50.156-38.74-83.795-96.547-83.795h-160.304v48.941h23.438v201.958h-22.588v48.941zM107.325 911.059v-72.744h59.142c25.503 0 42.99 15.666 42.99 38.254 0 20.038-19.552 34.49-47.241 34.49h-54.892zM107.325 791.196v-82.095h62.907c26.839 0 47.605 17.488 47.605 40.44 0 25.139-21.252 41.655-53.556 41.655h-56.956zM530.55 735.078c-10.202-49.306-51.494-79.909-106.749-79.909-63.757 0-110.513 49.791-110.513 119.499s47.242 119.863 110.999 119.863c36.189 0 68.006-17.002 87.558-46.391 20.89-31.94 21.738-62.057 22.589-85.010h-164.189c5.584-59.142 44.205-62.057 54.89-62.057 22.589 0 37.405 10.687 46.394 34.004h59.021zM472.256 802.235c-3.763 28.903-21.251 44.691-48.090 44.691-24.653 0-43.84-16.638-51.008-44.691h99.098z" />
<glyph unicode="&#xe943;" glyph-name="game-care" horiz-adv-x="960" d="M174.069 10.333c-1.929-45.018-32.028-74.346-72.288-74.346-21.095 0-39.231 8.102-53.637 24.31-11.962 13.379-18.394 30.742-18.394 50.166 0 19.421 7.589 37.814 22.124 52.221 13.763 13.763 30.742 20.582 51.451 20.582 28.941 0 51.194-14.15 62.127-38.717h-25.34c-9.39 11.962-22.51 18.134-38.46 18.134-13.377 0-25.725-5.146-35.115-14.79-9.904-10.163-15.564-24.182-15.564-37.69 0-14.922 5.145-28.554 14.406-38.074 9.776-10.16 23.153-15.949 36.273-15.949 21.352 0 38.074 11.318 48.878 34.086h-64.185v19.936h87.724v0.128zM196.191-61.2h-21.738l55.438 141.747h19.937l55.438-141.747h-22.51l-15.564 41.29h-55.052l-15.95-41.29zM239.796 53.792l-20.323-53.766h40.26l-19.937 53.766zM312.984-61.2v141.747h30.484l41.034-109.59 41.030 109.59h30.099v-141.747h-19.293l1.414 122.966-46.048-122.966h-14.538l-45.789 122.966 1.414-122.966h-19.809zM545.802-64.013c-20.966 0-38.717 7.718-52.608 22.509-13.376 14.15-20.195 31.645-20.195 52.611 0 19.549 7.334 37.43 21.482 51.194 13.891 13.763 31.514 20.966 51.581 20.966 33.056 0 61.354-21.741 70.614-56.598h-37.43c-7.587 13.891-18.906 21.354-32.928 21.354-21.094 0-37.686-16.336-37.686-37.046 0-22.509 17.491-39.872 37.043-39.872 13.379 0 25.082 7.203 32.672 20.323h37.686c-9.389-34.474-36.272-55.44-70.358-55.44h0.128zM651.277-61.2h-37.814l54.406 141.747h28.301l54.406-141.747h-38.33l-6.947 20.579h-46.819l-7.203-20.579zM682.019 34.112l-14.15-45.405h28.17l-14.019 45.405zM753.149-61.2v141.747h47.078c14.918 0 26.368-1.030 35.885-7.718 12.605-8.746 19.165-22.125 19.165-39.616 0-22.896-11.962-40.003-32.026-45.664l34.73-48.621h-42.835l-27.139 45.664v-45.664h-34.73l-0.128-0.128zM794.566 15.075c17.107 0 25.469 4.374 25.469 17.107 0 11.706-7.331 16.592-22.768 16.592h-9.517v-33.699h6.816zM873.546-61.2v141.747h76.922v-31.258h-42.32v-22.896h42.32v-31.514h-42.32v-24.694h42.32v-31.258h-76.922v-0.128zM925.379 469.619c-3.859 2.186-7.974 3.603-12.477 4.246-1.030 0.128-2.058 0.256-3.216 0.256-0.515 0-1.158 0.128-1.67 0.128h-1.546c-1.414 0-2.829 0-4.243 0h-277.062c-19.552 0-35.501-15.949-35.501-35.501s15.949-35.501 35.501-35.501h107.661c3.6 0 6.432-2.96 6.432-6.432 0-2.058-1.030-3.731-2.573-4.886-59.040-31.514-134.931-50.678-218.026-50.678-20.192 0-40 1.155-59.168 3.344v-80.65c16.723-1.286 33.83-1.93 51.066-1.93 115.635 0 220.854 28.298 299.571 74.474 1.030 0.387 2.061 0.643 3.216 0.643 3.859 0 6.947-3.085 6.947-6.944 0-0.643-0.128-1.418-0.387-2.058l-16.464-44.634c-8.618-23.411 3.344-49.523 26.883-58.141 5.146-1.93 10.419-2.829 15.693-2.829 18.394 0 35.76 11.318 42.448 29.584l59.424 161.296c8.106 21.869-2.058 45.92-22.509 55.955v0.256zM518.528 774.213c83.734 0 160.397-19.294 219.565-51.194 0 0 37.562-27.012 55.568-1.029 20.579 29.842-20.451 48.364-20.451 48.364-73.446 34.601-164.387 55.052-262.784 55.052-17.238 0-34.346-0.643-51.066-1.93v-52.48c19.293 2.187 38.973 3.344 59.168 3.344v-0.129zM93.032 959.969c-34.601 0-62.641-28.041-62.641-62.641v-683.139c0-34.602 28.041-62.64 62.641-62.64h366.331v112.547c-220.34 16.080-391.542 135.187-391.542 279.635s171.203 263.557 391.542 279.636v136.602h-366.331zM178.695 557.757c0-106.634 121.167-195.258 280.665-213.136v426.27c-159.498-17.879-280.665-106.374-280.665-213.134z" />
</font>
</defs>
</svg>
